  0
SECTION
  2
HEADER
  9
$ACADVER
  1
AC1015
  9
$ACADMAINTVER
 70
    20
  9
$DWGCODEPAGE
  3
ANSI_936
  9
$INSBASE
 10
0.0
 20
0.0
 30
0.0
  9
$EXTMIN
 10
1156.499846543649
 20
100.128733672566
 30
-0.0000000000112497
  9
$EXTMAX
 10
1194.030795690112
 20
178.3272304651295
 30
0.0000000000002956
  9
$LIMMIN
 10
0.0
 20
0.0
  9
$LIMMAX
 10
12.0
 20
9.0
  9
$ORTHOMODE
 70
     1
  9
$REGENMODE
 70
     1
  9
$FILLMODE
 70
     1
  9
$QTEXTMODE
 70
     0
  9
$MIRRTEXT
 70
     0
  9
$LTSCALE
 40
1.0
  9
$ATTMODE
 70
     1
  9
$TEXTSIZE
 40
0.2
  9
$TRACEWID
 40
0.05
  9
$TEXTSTYLE
  7
STANDARD
  9
$CLAYER
  8
标注
  9
$CELTYPE
  6
ByLayer
  9
$CECOLOR
 62
   256
  9
$CELTSCALE
 40
1.0
  9
$DISPSILH
 70
     0
  9
$DIMSCALE
 40
1.0
  9
$DIMASZ
 40
0.65
  9
$DIMEXO
 40
0.88
  9
$DIMDLI
 40
0.015
  9
$DIMRND
 40
0.0
  9
$DIMDLE
 40
0.0
  9
$DIMEXE
 40
0.32
  9
$DIMTP
 40
0.0
  9
$DIMTM
 40
0.0
  9
$DIMTXT
 40
0.65
  9
$DIMCEN
 40
0.09
  9
$DIMTSZ
 40
0.0
  9
$DIMTOL
 70
     0
  9
$DIMLIM
 70
     0
  9
$DIMTIH
 70
     0
  9
$DIMTOH
 70
     0
  9
$DIMSE1
 70
     0
  9
$DIMSE2
 70
     0
  9
$DIMTAD
 70
     0
  9
$DIMZIN
 70
     8
  9
$DIMBLK
  1

  9
$DIMASO
 70
     1
  9
$DIMSHO
 70
     1
  9
$DIMPOST
  1
"
  9
$DIMAPOST
  1
"
  9
$DIMALT
 70
     0
  9
$DIMALTD
 70
     1
  9
$DIMALTF
 40
0.03937
  9
$DIMLFAC
 40
1.0
  9
$DIMTOFL
 70
     1
  9
$DIMTVP
 40
0.0
  9
$DIMTIX
 70
     0
  9
$DIMSOXD
 70
     0
  9
$DIMSAH
 70
     0
  9
$DIMBLK1
  1

  9
$DIMBLK2
  1

  9
$DIMSTYLE
  2
副本STANDARD
  9
$DIMCLRD
 70
   256
  9
$DIMCLRE
 70
   256
  9
$DIMCLRT
 70
   256
  9
$DIMTFAC
 40
1.0
  9
$DIMGAP
 40
0.3
  9
$DIMJUST
 70
     0
  9
$DIMSD1
 70
     0
  9
$DIMSD2
 70
     0
  9
$DIMTOLJ
 70
     1
  9
$DIMTZIN
 70
     8
  9
$DIMALTZ
 70
     8
  9
$DIMALTTZ
 70
     8
  9
$DIMUPT
 70
     0
  9
$DIMDEC
 70
     3
  9
$DIMTDEC
 70
     3
  9
$DIMALTU
 70
     2
  9
$DIMALTTD
 70
     1
  9
$DIMTXSTY
  7
STANDARD
  9
$DIMAUNIT
 70
     0
  9
$DIMADEC
 70
     0
  9
$DIMALTRND
 40
0.0
  9
$DIMAZIN
 70
     0
  9
$DIMDSEP
 70
    46
  9
$DIMATFIT
 70
     3
  9
$DIMFRAC
 70
     2
  9
$DIMLDRBLK
  1

  9
$DIMLUNIT
 70
     5
  9
$DIMLWD
 70
    -2
  9
$DIMLWE
 70
    -2
  9
$DIMTMOVE
 70
     2
  9
$LUNITS
 70
     2
  9
$LUPREC
 70
     4
  9
$SKETCHINC
 40
0.1
  9
$FILLETRAD
 40
0.0
  9
$AUNITS
 70
     0
  9
$AUPREC
 70
     0
  9
$MENU
  1
.
  9
$ELEVATION
 40
0.0
  9
$PELEVATION
 40
0.0
  9
$THICKNESS
 40
0.0
  9
$LIMCHECK
 70
     0
  9
$CHAMFERA
 40
0.0
  9
$CHAMFERB
 40
0.0
  9
$CHAMFERC
 40
0.0
  9
$CHAMFERD
 40
0.0
  9
$SKPOLY
 70
     0
  9
$TDCREATE
 40
2455434.724808658
  9
$TDUCREATE
 40
2455434.391475324
  9
$TDUPDATE
 40
2458562.592449352
  9
$TDUUPDATE
 40
2458562.259116019
  9
$TDINDWG
 40
0.5782701620
  9
$TDUSRTIMER
 40
0.5782531597
  9
$USRTIMER
 70
     1
  9
$ANGBASE
 50
0.0
  9
$ANGDIR
 70
     0
  9
$PDMODE
 70
     0
  9
$PDSIZE
 40
0.0
  9
$PLINEWID
 40
0.0
  9
$SPLFRAME
 70
     0
  9
$SPLINETYPE
 70
     6
  9
$SPLINESEGS
 70
     8
  9
$HANDSEED
  5
7D6D
  9
$SURFTAB1
 70
     6
  9
$SURFTAB2
 70
     6
  9
$SURFTYPE
 70
     6
  9
$SURFU
 70
     6
  9
$SURFV
 70
     6
  9
$UCSBASE
  2

  9
$UCSNAME
  2

  9
$UCSORG
 10
0.0
 20
0.0
 30
0.0
  9
$UCSXDIR
 10
1.0
 20
0.0
 30
0.0
  9
$UCSYDIR
 10
0.0
 20
1.0
 30
0.0
  9
$UCSORTHOREF
  2

  9
$UCSORTHOVIEW
 70
     0
  9
$UCSORGTOP
 10
0.0
 20
0.0
 30
0.0
  9
$UCSORGBOTTOM
 10
0.0
 20
0.0
 30
0.0
  9
$UCSORGLEFT
 10
0.0
 20
0.0
 30
0.0
  9
$UCSORGRIGHT
 10
0.0
 20
0.0
 30
0.0
  9
$UCSORGFRONT
 10
0.0
 20
0.0
 30
0.0
  9
$UCSORGBACK
 10
0.0
 20
0.0
 30
0.0
  9
$PUCSBASE
  2

  9
$PUCSNAME
  2

  9
$PUCSORG
 10
0.0
 20
0.0
 30
0.0
  9
$PUCSXDIR
 10
1.0
 20
0.0
 30
0.0
  9
$PUCSYDIR
 10
0.0
 20
1.0
 30
0.0
  9
$PUCSORTHOREF
  2

  9
$PUCSORTHOVIEW
 70
     0
  9
$PUCSORGTOP
 10
0.0
 20
0.0
 30
0.0
  9
$PUCSORGBOTTOM
 10
0.0
 20
0.0
 30
0.0
  9
$PUCSORGLEFT
 10
0.0
 20
0.0
 30
0.0
  9
$PUCSORGRIGHT
 10
0.0
 20
0.0
 30
0.0
  9
$PUCSORGFRONT
 10
0.0
 20
0.0
 30
0.0
  9
$PUCSORGBACK
 10
0.0
 20
0.0
 30
0.0
  9
$USERI1
 70
     0
  9
$USERI2
 70
     0
  9
$USERI3
 70
     0
  9
$USERI4
 70
     0
  9
$USERI5
 70
     0
  9
$USERR1
 40
0.0
  9
$USERR2
 40
0.0
  9
$USERR3
 40
0.0
  9
$USERR4
 40
0.0
  9
$USERR5
 40
2.5
  9
$WORLDVIEW
 70
     1
  9
$SHADEDGE
 70
     3
  9
$SHADEDIF
 70
    70
  9
$TILEMODE
 70
     1
  9
$MAXACTVP
 70
    64
  9
$PINSBASE
 10
0.0
 20
0.0
 30
0.0
  9
$PLIMCHECK
 70
     0
  9
$PEXTMIN
 10
1.000000000000000E+20
 20
1.000000000000000E+20
 30
1.000000000000000E+20
  9
$PEXTMAX
 10
-1.000000000000000E+20
 20
-1.000000000000000E+20
 30
-1.000000000000000E+20
  9
$PLIMMIN
 10
0.0
 20
0.0
  9
$PLIMMAX
 10
12.0
 20
9.0
  9
$UNITMODE
 70
     0
  9
$VISRETAIN
 70
     1
  9
$PLINEGEN
 70
     0
  9
$PSLTSCALE
 70
     1
  9
$TREEDEPTH
 70
  3020
  9
$CMLSTYLE
  2
Standard
  9
$CMLJUST
 70
     0
  9
$CMLSCALE
 40
1.0
  9
$PROXYGRAPHICS
 70
     1
  9
$MEASUREMENT
 70
     0
  9
$CELWEIGHT
370
    -1
  9
$ENDCAPS
280
     0
  9
$JOINSTYLE
280
     0
  9
$LWDISPLAY
290
     0
  9
$INSUNITS
 70
     0
  9
$HYPERLINKBASE
  1

  9
$STYLESHEET
  1

  9
$XEDIT
290
     1
  9
$CEPSNTYPE
380
     0
  9
$PSTYLEMODE
290
     1
  9
$FINGERPRINTGUID
  2
{7BAC09DB-C4D0-41DB-8C07-4C6808ADD930}
  9
$VERSIONGUID
  2
{3CA8439E-2FE0-4A0C-A578-19A721E03174}
  9
$EXTNAMES
290
     1
  9
$PSVPSCALE
 40
0.0
  9
$OLESTARTUP
290
     0
  0
ENDSEC
  0
SECTION
  2
CLASSES
  0
CLASS
  1
ACDBDICTIONARYWDFLT
  2
AcDbDictionaryWithDefault
  3
ObjectDBX Classes
 90
        0
280
     0
281
     0
  0
CLASS
  1
MATERIAL
  2
AcDbMaterial
  3
ObjectDBX Classes
 90
     1153
280
     0
281
     0
  0
CLASS
  1
VISUALSTYLE
  2
AcDbVisualStyle
  3
ObjectDBX Classes
 90
     4095
280
     0
281
     0
  0
CLASS
  1
SCALE
  2
AcDbScale
  3
ObjectDBX Classes
 90
     1153
280
     0
281
     0
  0
CLASS
  1
TABLESTYLE
  2
AcDbTableStyle
  3
ObjectDBX Classes
 90
     4095
280
     0
281
     0
  0
CLASS
  1
MLEADERSTYLE
  2
AcDbMLeaderStyle
  3
ACDB_MLEADERSTYLE_CLASS
 90
     4095
280
     0
281
     0
  0
CLASS
  1
VLO-VL
  2
vlo_VL
  3
VL|AutoLISP based application
 90
      129
280
     0
281
     0
  0
CLASS
  1
DICTIONARYVAR
  2
AcDbDictionaryVar
  3
ObjectDBX Classes
 90
        0
280
     0
281
     0
  0
CLASS
  1
CELLSTYLEMAP
  2
AcDbCellStyleMap
  3
ObjectDBX Classes
 90
     1152
280
     0
281
     0
  0
CLASS
  1
DIMASSOC
  2
AcDbDimAssoc
  3
"AcDbDimAssoc|Product Desc:     AcDim ARX App For Dimension|Company:          Autodesk, Inc.|WEB Address:      www.autodesk.com"
 90
        0
280
     0
281
     0
  0
CLASS
  1
SORTENTSTABLE
  2
AcDbSortentsTable
  3
ObjectDBX Classes
 90
        0
280
     0
281
     0
  0
CLASS
  1
ACDBPLACEHOLDER
  2
AcDbPlaceHolder
  3
ObjectDBX Classes
 90
        0
280
     0
281
     0
  0
CLASS
  1
LAYOUT
  2
AcDbLayout
  3
ObjectDBX Classes
 90
        0
280
     0
281
     0
  0
ENDSEC
  0
SECTION
  2
TABLES
  0
TABLE
  2
VPORT
  5
5F02
330
0
100
AcDbSymbolTable
 70
     1
  0
VPORT
  5
5F73
330
5F02
100
AcDbSymbolTableRecord
100
AcDbViewportTableRecord
  2
*ACTIVE
 70
     0
 10
0.0
 20
0.0
 11
1.0
 21
1.0
 12
1210.997900658587
 22
139.8957478844139
 13
0.0
 23
0.0
 14
0.5
 24
0.5
 15
0.5
 25
0.5
 16
0.0
 26
0.0
 36
1.0
 17
0.0
 27
0.0
 37
0.0
 40
206.4857750123108
 41
1.522756827048114
 42
50.0
 43
0.0
 44
0.0
 50
0.0
 51
0.0
 71
     0
 72
  1000
 73
     1
 74
     3
 75
     0
 76
     0
 77
     0
 78
     0
281
     0
 65
     1
110
0.0
120
0.0
130
0.0
111
1.0
121
0.0
131
0.0
112
0.0
122
1.0
132
0.0
 79
     0
146
0.0
  0
ENDTAB
  0
TABLE
  2
LTYPE
  5
5EFF
330
0
100
AcDbSymbolTable
 70
    11
  0
LTYPE
  5
5F5C
330
5EFF
100
AcDbSymbolTableRecord
100
AcDbLinetypeTableRecord
  2
ByBlock
 70
     0
  3

 72
    65
 73
     0
 40
0.0
  0
LTYPE
  5
5F5D
330
5EFF
100
AcDbSymbolTableRecord
100
AcDbLinetypeTableRecord
  2
ByLayer
 70
     0
  3

 72
    65
 73
     0
 40
0.0
  0
LTYPE
  5
5F5E
330
5EFF
100
AcDbSymbolTableRecord
100
AcDbLinetypeTableRecord
  2
CONTINUOUS
 70
     0
  3
Solid line
 72
    65
 73
     0
 40
0.0
  0
LTYPE
  5
5F74
330
5EFF
100
AcDbSymbolTableRecord
100
AcDbLinetypeTableRecord
  2
CENTER2
 70
     0
  3
Center (.5x) ___ _ ___ _ ___ _ ___ _ ___ _ ___
 72
    65
 73
     4
 40
28.575
 49
19.05
 74
     0
 49
-3.174999999999998
 74
     0
 49
3.174999999999998
 74
     0
 49
-3.174999999999998
 74
     0
  0
LTYPE
  5
5F75
330
5EFF
100
AcDbSymbolTableRecord
100
AcDbLinetypeTableRecord
  2
HIDDEN2
 70
     0
  3
Hidden (.5x) _ _ _ _ _ _ _ _ _ _ _ _ _ _ _ _ _
 72
    65
 73
     2
 40
4.762499999999998
 49
3.174999999999998
 74
     0
 49
-1.587499999999999
 74
     0
  0
ENDTAB
  0
TABLE
  2
LAYER
  5
5EFC
102
{ACAD_XDICTIONARY
360
61B7
102
}
330
0
100
AcDbSymbolTable
 70
    11
  0
LAYER
  5
5F56
102
{ACAD_XDICTIONARY
360
60F4
102
}
330
5EFC
100
AcDbSymbolTableRecord
100
AcDbLayerTableRecord
  2
0
 70
     0
 62
     7
  6
CONTINUOUS
370
    -3
390
5F09
  0
LAYER
  5
5F72
102
{ACAD_XDICTIONARY
360
60F6
102
}
330
5EFC
100
AcDbSymbolTableRecord
100
AcDbLayerTableRecord
  2
标注
 70
     0
 62
    80
  6
CONTINUOUS
370
    -3
390
5F09
  0
LAYER
  5
5F7D
102
{ACAD_XDICTIONARY
360
60F8
102
}
330
5EFC
100
AcDbSymbolTableRecord
100
AcDbLayerTableRecord
  2
中心线
 70
     0
 62
     1
  6
CENTER2
370
    -3
390
5F09
  0
LAYER
  5
5F7E
102
{ACAD_XDICTIONARY
360
60FA
102
}
330
5EFC
100
AcDbSymbolTableRecord
100
AcDbLayerTableRecord
  2
虚线
 70
     0
 62
     4
  6
HIDDEN2
370
    -3
390
5F09
  0
LAYER
  5
5F7F
330
5EFC
100
AcDbSymbolTableRecord
100
AcDbLayerTableRecord
  2
DEFPOINTS
 70
     0
 62
     7
  6
CONTINUOUS
290
     0
370
    -3
390
5F09
  0
LAYER
  5
7BC1
102
{ACAD_XDICTIONARY
360
7BC2
102
}
330
5EFC
100
AcDbSymbolTableRecord
100
AcDbLayerTableRecord
  2
细实线
 70
     0
 62
     7
  6
CONTINUOUS
370
     9
390
5F09
  0
ENDTAB
  0
TABLE
  2
STYLE
  5
5EFD
330
0
100
AcDbSymbolTable
 70
     4
  0
STYLE
  5
5F57
330
5EFD
100
AcDbSymbolTableRecord
100
AcDbTextStyleTableRecord
  2
STANDARD
 70
     0
 40
0.0
 41
1.0
 50
0.0
 71
     0
 42
0.2
  3
arial.ttf
  4

1001
ACAD
1000
Arial
1071
       34
  0
ENDTAB
  0
TABLE
  2
VIEW
  5
5F00
330
0
100
AcDbSymbolTable
 70
     0
  0
ENDTAB
  0
TABLE
  2
UCS
  5
5F01
330
0
100
AcDbSymbolTable
 70
     0
  0
ENDTAB
  0
TABLE
  2
APPID
  5
5F03
330
0
100
AcDbSymbolTable
 70
    29
  0
APPID
  5
5F58
330
5F03
100
AcDbSymbolTableRecord
100
AcDbRegAppTableRecord
  2
ACAD
 70
     0
  0
APPID
  5
5F5F
330
5F03
100
AcDbSymbolTableRecord
100
AcDbRegAppTableRecord
  2
ACADANNOTATIVE
 70
     0
  0
APPID
  5
5F69
330
5F03
100
AcDbSymbolTableRecord
100
AcDbRegAppTableRecord
  2
ACAD_MLEADERVER
 70
     0
  0
APPID
  5
5F84
330
5F03
100
AcDbSymbolTableRecord
100
AcDbRegAppTableRecord
  2
ACAECLAYERSTANDARD
 70
     0
  0
APPID
  5
5F85
330
5F03
100
AcDbSymbolTableRecord
100
AcDbRegAppTableRecord
  2
ACAD_DSTYLE_DIMEXT_LENGTH
 70
     0
  0
APPID
  5
5F86
330
5F03
100
AcDbSymbolTableRecord
100
AcDbRegAppTableRecord
  2
ACAD_DSTYLE_DIMEXT_ENABLED
 70
     0
  0
APPID
  5
5F87
330
5F03
100
AcDbSymbolTableRecord
100
AcDbRegAppTableRecord
  2
ACAD_DSTYLE_DIMJOGGED_JOGA
 70
     0
  0
APPID
  5
5F88
330
5F03
100
AcDbSymbolTableRecord
100
AcDbRegAppTableRecord
  2
ACAD_DSTYLE_DIMARC_LENGTH_
 70
     0
  0
APPID
  5
5F89
330
5F03
100
AcDbSymbolTableRecord
100
AcDbRegAppTableRecord
  2
ACAD_PSEXT
 70
     0
  0
APPID
  5
5F8A
330
5F03
100
AcDbSymbolTableRecord
100
AcDbRegAppTableRecord
  2
MCAD_NO_VIS
 70
     0
  0
APPID
  5
5F8B
330
5F03
100
AcDbSymbolTableRecord
100
AcDbRegAppTableRecord
  2
ACAD_TEMP_GRAPHIC
 70
     0
  0
APPID
  5
5F8C
330
5F03
100
AcDbSymbolTableRecord
100
AcDbRegAppTableRecord
  2
AD_DRAW
 70
     0
  0
APPID
  5
5F8D
330
5F03
100
AcDbSymbolTableRecord
100
AcDbRegAppTableRecord
  2
ACATTRIBSERVICES
 70
     0
  0
APPID
  5
5F8E
330
5F03
100
AcDbSymbolTableRecord
100
AcDbRegAppTableRecord
  2
DESIGNERASSEMBLIES
 70
     0
  0
APPID
  5
5F8F
330
5F03
100
AcDbSymbolTableRecord
100
AcDbRegAppTableRecord
  2
ACADM_DIM_EDIT
 70
     0
  0
APPID
  5
5F90
330
5F03
100
AcDbSymbolTableRecord
100
AcDbRegAppTableRecord
  2
AMDT_DM_ADJ
 70
     0
  0
APPID
  5
5F91
330
5F03
100
AcDbSymbolTableRecord
100
AcDbRegAppTableRecord
  2
ACAD_DSTYLE_DIMJAG
 70
     0
  0
APPID
  5
5F92
330
5F03
100
AcDbSymbolTableRecord
100
AcDbRegAppTableRecord
  2
ACAD_DSTYLE_DIMBREAK
 70
     0
  0
APPID
  5
5F93
330
5F03
100
AcDbSymbolTableRecord
100
AcDbRegAppTableRecord
  2
ACAD_DSTYLE_DIMTALN
 70
     0
  0
APPID
  5
5F94
330
5F03
100
AcDbSymbolTableRecord
100
AcDbRegAppTableRecord
  2
GENIUS_GENODEF_13
 70
     0
  0
APPID
  5
5F95
330
5F03
100
AcDbSymbolTableRecord
100
AcDbRegAppTableRecord
  2
GENIUS_GENOBJ-N-FIL_13
 70
     0
  0
APPID
  5
5F96
330
5F03
100
AcDbSymbolTableRecord
100
AcDbRegAppTableRecord
  2
ACAD_EXEMPT_FROM_CAD_STANDARDS
 70
     0
  0
APPID
  5
5F97
330
5F03
100
AcDbSymbolTableRecord
100
AcDbRegAppTableRecord
  2
ACAD_DSTYLE_DIM_LINETYPE
 70
     0
  0
APPID
  5
5F98
330
5F03
100
AcDbSymbolTableRecord
100
AcDbRegAppTableRecord
  2
ACAD_DSTYLE_DIM_EXT1_LINETYPE
 70
     0
  0
APPID
  5
5F99
330
5F03
100
AcDbSymbolTableRecord
100
AcDbRegAppTableRecord
  2
ACAD_DSTYLE_DIM_EXT2_LINETYPE
 70
     0
  0
APPID
  5
5F9A
330
5F03
100
AcDbSymbolTableRecord
100
AcDbRegAppTableRecord
  2
ACAD_DSTYLE_DIMRADIAL_EXTENSION
 70
     0
  0
APPID
  5
6488
330
5F03
100
AcDbSymbolTableRecord
100
AcDbRegAppTableRecord
  2
AcadAnnoPO
 70
     0
  0
APPID
  5
6F89
330
5F03
100
AcDbSymbolTableRecord
100
AcDbRegAppTableRecord
  2
GENIUS_GENFIL_13
 70
     0
  0
APPID
  5
6F8A
330
5F03
100
AcDbSymbolTableRecord
100
AcDbRegAppTableRecord
  2
GENIUS_GENOBJ-N-CHA_13
 70
     0
  0
ENDTAB
  0
TABLE
  2
DIMSTYLE
  5
5F04
330
0
100
AcDbSymbolTable
 70
    30
100
AcDbDimStyleTable
 71
     2
340
5F9B
340
5F59
  0
DIMSTYLE
105
5F59
330
5F04
100
AcDbSymbolTableRecord
100
AcDbDimStyleTableRecord
  2
STANDARD
 70
     0
 41
0.65
 73
     0
 74
     0
140
0.65
176
     3
177
     3
178
     3
271
     3
272
     3
276
     2
277
     5
279
     2
284
     8
285
     8
286
     8
340
5F57
371
    13
372
    13
1001
ACAD_DSTYLE_DIMJAG
1070
   388
1040
1.5
1001
ACAD_DSTYLE_DIMTALN
1070
   392
1070
     0
1001
ACAD_DSTYLE_DIM_LINETYPE
1070
   380
1005
5F5E
1001
ACAD_DSTYLE_DIM_EXT1_LINETYPE
1070
   381
1005
5F5E
1001
ACAD_DSTYLE_DIM_EXT2_LINETYPE
1070
   382
1005
5F5E
  0
DIMSTYLE
105
5F9B
102
{ACAD_REACTORS
330
7C8C
330
7C9A
330
7CA8
330
7CB8
330
7CC6
330
7CD4
330
7CE2
330
7CF0
330
7CFE
330
7D0E
102
}
330
5F04
100
AcDbSymbolTableRecord
100
AcDbDimStyleTableRecord
  2
副本STANDARD
 70
     0
  3
"
  4
"
 41
0.65
 42
0.88
 43
0.015
 44
0.32
 73
     0
 74
     0
 78
     8
140
0.65
143
0.03937
147
0.3
171
     1
172
     1
176
   256
177
   256
178
   256
271
     3
272
     3
274
     1
276
     2
277
     5
279
     2
284
     8
285
     8
286
     8
340
5F57
1001
ACAD_DSTYLE_DIMJAG
1070
   388
1040
1.5
1001
ACAD_DSTYLE_DIMTALN
1070
   392
1070
     0
  0
DIMSTYLE
105
7BC3
330
5F04
100
AcDbSymbolTableRecord
100
AcDbDimStyleTableRecord
  2
毫米英寸Standard
 70
     0
  3
mm
  4
"
 41
14.0
 42
20.0
 44
8.0
 73
     0
 74
     0
 78
     8
 79
     2
140
14.0
143
0.03937
147
8.0
170
     1
171
     3
172
     1
176
   256
177
   256
178
   256
179
     1
271
     1
272
     1
273
     7
274
     3
278
    44
340
5F57
1001
ACAD_DSTYLE_DIMBREAK
1070
   391
1040
0.125
1001
ACAD_DSTYLE_DIMJAG
1070
   388
1040
1.5
1001
ACAD_DSTYLE_DIMTALN
1070
   392
1070
     0
  0
DIMSTYLE
105
7BC4
330
5F04
100
AcDbSymbolTableRecord
100
AcDbDimStyleTableRecord
  2
inch
 70
     0
  3
"
  4
"
 41
14.0
 42
20.0
 44
8.0
 73
     0
 74
     0
 78
     8
 79
     2
140
14.0
143
0.03937
144
0.03937007874
147
8.0
171
     3
172
     1
176
   256
177
   256
178
   256
179
     1
271
     3
272
     3
273
     7
274
     3
276
     2
277
     5
278
    44
340
5F57
  0
DIMSTYLE
105
7BC5
330
5F04
100
AcDbSymbolTableRecord
100
AcDbDimStyleTableRecord
  2
毫米英寸
 70
     0
  3
mm
  4
"
 41
20.0
 42
20.0
 43
3.75
 44
5.0
 45
0.0005
 73
     0
 74
     0
 78
     8
140
20.0
141
2.5
143
0.03937007874
147
2.0
170
     1
171
     3
172
     1
176
   256
177
   256
178
   256
179
     1
271
     1
272
     1
273
     7
274
     3
276
     2
283
     0
284
     8
285
    12
340
5F57
371
     9
372
     9
1001
ACAD_DSTYLE_DIMBREAK
1070
   391
1040
3.75
1001
ACAD_DSTYLE_DIMJAG
1070
   388
1040
1.5
1001
ACAD_DSTYLE_DIMTALN
1070
   392
1070
     0
1001
ACAD_DSTYLE_DIMEXT_LENGTH
1070
   378
1040
8.0
1001
ACAD_DSTYLE_DIM_LINETYPE
1070
   380
1005
5F5D
  0
ENDTAB
  0
TABLE
  2
BLOCK_RECORD
  5
5EFB
330
0
100
AcDbSymbolTable
 70
   326
  0
BLOCK_RECORD
  5
5F6E
102
{ACAD_XDICTIONARY
360
654F
102
}
330
5EFB
100
AcDbSymbolTableRecord
100
AcDbBlockTableRecord
  2
*Model_Space
340
5F71
  0
BLOCK_RECORD
  5
5F6A
330
5EFB
100
AcDbSymbolTableRecord
100
AcDbBlockTableRecord
  2
*Paper_Space
340
5F6D
  0
BLOCK_RECORD
  5
7651
330
5EFB
100
AcDbSymbolTableRecord
100
AcDbBlockTableRecord
  2
*D276
340
0
  0
BLOCK_RECORD
  5
765F
330
5EFB
100
AcDbSymbolTableRecord
100
AcDbBlockTableRecord
  2
*D277
340
0
  0
BLOCK_RECORD
  5
766D
330
5EFB
100
AcDbSymbolTableRecord
100
AcDbBlockTableRecord
  2
*D278
340
0
  0
BLOCK_RECORD
  5
767B
330
5EFB
100
AcDbSymbolTableRecord
100
AcDbBlockTableRecord
  2
*D279
340
0
  0
BLOCK_RECORD
  5
7689
330
5EFB
100
AcDbSymbolTableRecord
100
AcDbBlockTableRecord
  2
*D280
340
0
  0
BLOCK_RECORD
  5
7697
330
5EFB
100
AcDbSymbolTableRecord
100
AcDbBlockTableRecord
  2
*D281
340
0
  0
BLOCK_RECORD
  5
76A5
330
5EFB
100
AcDbSymbolTableRecord
100
AcDbBlockTableRecord
  2
*D282
340
0
  0
BLOCK_RECORD
  5
76B3
330
5EFB
100
AcDbSymbolTableRecord
100
AcDbBlockTableRecord
  2
*D283
340
0
  0
BLOCK_RECORD
  5
76BD
330
5EFB
100
AcDbSymbolTableRecord
100
AcDbBlockTableRecord
  2
*D284
340
0
  0
BLOCK_RECORD
  5
76EB
330
5EFB
100
AcDbSymbolTableRecord
100
AcDbBlockTableRecord
  2
*D285
340
0
  0
BLOCK_RECORD
  5
770D
330
5EFB
100
AcDbSymbolTableRecord
100
AcDbBlockTableRecord
  2
*D286
340
0
  0
BLOCK_RECORD
  5
7745
330
5EFB
100
AcDbSymbolTableRecord
100
AcDbBlockTableRecord
  2
*D287
340
0
  0
BLOCK_RECORD
  5
774F
330
5EFB
100
AcDbSymbolTableRecord
100
AcDbBlockTableRecord
  2
*D288
340
0
  0
BLOCK_RECORD
  5
7765
330
5EFB
100
AcDbSymbolTableRecord
100
AcDbBlockTableRecord
  2
*D289
340
0
  0
BLOCK_RECORD
  5
7773
330
5EFB
100
AcDbSymbolTableRecord
100
AcDbBlockTableRecord
  2
*D290
340
0
  0
BLOCK_RECORD
  5
7781
330
5EFB
100
AcDbSymbolTableRecord
100
AcDbBlockTableRecord
  2
*D291
340
0
  0
BLOCK_RECORD
  5
779B
330
5EFB
100
AcDbSymbolTableRecord
100
AcDbBlockTableRecord
  2
*D292
340
0
  0
BLOCK_RECORD
  5
77A5
330
5EFB
100
AcDbSymbolTableRecord
100
AcDbBlockTableRecord
  2
*D293
340
0
  0
BLOCK_RECORD
  5
77AF
330
5EFB
100
AcDbSymbolTableRecord
100
AcDbBlockTableRecord
  2
*D294
340
0
  0
BLOCK_RECORD
  5
7955
330
5EFB
100
AcDbSymbolTableRecord
100
AcDbBlockTableRecord
  2
*D295
340
0
  0
BLOCK_RECORD
  5
7962
330
5EFB
100
AcDbSymbolTableRecord
100
AcDbBlockTableRecord
  2
*D296
340
0
  0
BLOCK_RECORD
  5
796F
330
5EFB
100
AcDbSymbolTableRecord
100
AcDbBlockTableRecord
  2
*D297
340
0
  0
BLOCK_RECORD
  5
797C
330
5EFB
100
AcDbSymbolTableRecord
100
AcDbBlockTableRecord
  2
*D298
340
0
  0
BLOCK_RECORD
  5
7989
330
5EFB
100
AcDbSymbolTableRecord
100
AcDbBlockTableRecord
  2
*D299
340
0
  0
BLOCK_RECORD
  5
7996
330
5EFB
100
AcDbSymbolTableRecord
100
AcDbBlockTableRecord
  2
*D300
340
0
  0
BLOCK_RECORD
  5
79A3
330
5EFB
100
AcDbSymbolTableRecord
100
AcDbBlockTableRecord
  2
*D301
340
0
  0
BLOCK_RECORD
  5
79B0
330
5EFB
100
AcDbSymbolTableRecord
100
AcDbBlockTableRecord
  2
*D302
340
0
  0
BLOCK_RECORD
  5
79B9
330
5EFB
100
AcDbSymbolTableRecord
100
AcDbBlockTableRecord
  2
*D303
340
0
  0
BLOCK_RECORD
  5
79C2
330
5EFB
100
AcDbSymbolTableRecord
100
AcDbBlockTableRecord
  2
*D304
340
0
  0
BLOCK_RECORD
  5
79CF
330
5EFB
100
AcDbSymbolTableRecord
100
AcDbBlockTableRecord
  2
*D305
340
0
  0
BLOCK_RECORD
  5
79DC
330
5EFB
100
AcDbSymbolTableRecord
100
AcDbBlockTableRecord
  2
*D306
340
0
  0
BLOCK_RECORD
  5
79E5
330
5EFB
100
AcDbSymbolTableRecord
100
AcDbBlockTableRecord
  2
*D307
340
0
  0
BLOCK_RECORD
  5
79EE
330
5EFB
100
AcDbSymbolTableRecord
100
AcDbBlockTableRecord
  2
*D308
340
0
  0
BLOCK_RECORD
  5
79FB
330
5EFB
100
AcDbSymbolTableRecord
100
AcDbBlockTableRecord
  2
*D309
340
0
  0
BLOCK_RECORD
  5
7A08
330
5EFB
100
AcDbSymbolTableRecord
100
AcDbBlockTableRecord
  2
*D310
340
0
  0
BLOCK_RECORD
  5
7A15
330
5EFB
100
AcDbSymbolTableRecord
100
AcDbBlockTableRecord
  2
*D311
340
0
  0
BLOCK_RECORD
  5
7A1E
330
5EFB
100
AcDbSymbolTableRecord
100
AcDbBlockTableRecord
  2
*D312
340
0
  0
BLOCK_RECORD
  5
7A27
330
5EFB
100
AcDbSymbolTableRecord
100
AcDbBlockTableRecord
  2
*D313
340
0
  0
BLOCK_RECORD
  5
7C8D
330
5EFB
100
AcDbSymbolTableRecord
100
AcDbBlockTableRecord
  2
*D315
340
0
  0
BLOCK_RECORD
  5
7C9B
330
5EFB
100
AcDbSymbolTableRecord
100
AcDbBlockTableRecord
  2
*D316
340
0
  0
BLOCK_RECORD
  5
7CA9
330
5EFB
100
AcDbSymbolTableRecord
100
AcDbBlockTableRecord
  2
*D317
340
0
  0
BLOCK_RECORD
  5
7CB9
330
5EFB
100
AcDbSymbolTableRecord
100
AcDbBlockTableRecord
  2
*D318
340
0
  0
BLOCK_RECORD
  5
7CC7
330
5EFB
100
AcDbSymbolTableRecord
100
AcDbBlockTableRecord
  2
*D319
340
0
  0
BLOCK_RECORD
  5
7CD5
330
5EFB
100
AcDbSymbolTableRecord
100
AcDbBlockTableRecord
  2
*D320
340
0
  0
BLOCK_RECORD
  5
7CE3
330
5EFB
100
AcDbSymbolTableRecord
100
AcDbBlockTableRecord
  2
*D321
340
0
  0
BLOCK_RECORD
  5
7CF1
330
5EFB
100
AcDbSymbolTableRecord
100
AcDbBlockTableRecord
  2
*D322
340
0
  0
BLOCK_RECORD
  5
7CFF
330
5EFB
100
AcDbSymbolTableRecord
100
AcDbBlockTableRecord
  2
*D323
340
0
  0
BLOCK_RECORD
  5
7D0F
330
5EFB
100
AcDbSymbolTableRecord
100
AcDbBlockTableRecord
  2
*D324
340
0
  0
ENDTAB
  0
ENDSEC
  0
SECTION
  2
BLOCKS
  0
BLOCK
  5
5F6F
330
5F6E
100
AcDbEntity
  8
0
100
AcDbBlockBegin
  2
*Model_Space
 70
     0
 10
0.0
 20
0.0
 30
0.0
  3
*Model_Space
  1

  0
ENDBLK
  5
5F70
330
5F6E
100
AcDbEntity
  8
0
100
AcDbBlockEnd
  0
BLOCK
  5
5F6B
330
5F6A
100
AcDbEntity
 67
     1
  8
0
100
AcDbBlockBegin
  2
*Paper_Space
 70
     0
 10
0.0
 20
0.0
 30
0.0
  3
*Paper_Space
  1

  0
ENDBLK
  5
5F6C
330
5F6A
100
AcDbEntity
 67
     1
  8
0
100
AcDbBlockEnd
  0
BLOCK
  5
7652
330
7651
100
AcDbEntity
  8
0
100
AcDbBlockBegin
  2
*D276
 70
     1
 10
0.0
 20
0.0
 30
0.0
  3
*D276
  1

  0
LINE
  5
77CA
330
7651
100
AcDbEntity
  8
标注
370
    -2
100
AcDbLine
 10
1094.219037908409
 20
138.162998433621
 30
0.0
 11
1094.219037908409
 21
135.1913252291895
 31
0.0
  0
LINE
  5
77CB
330
7651
100
AcDbEntity
  8
标注
370
    -2
100
AcDbLine
 10
1112.219037908332
 20
138.162998433621
 30
0.0
 11
1112.219037908332
 21
135.1913252291895
 31
0.0
  0
LINE
  5
77CC
330
7651
100
AcDbEntity
  8
标注
370
    -2
100
AcDbLine
 10
1094.869037908409
 20
135.5113252291895
 30
0.0
 11
1102.323574061167
 21
135.5113252291895
 31
0.0
  0
LINE
  5
77CD
330
7651
100
AcDbEntity
  8
标注
370
    -2
100
AcDbLine
 10
1111.569037908331
 20
135.5113252291895
 30
0.0
 11
1104.114501755574
 21
135.5113252291895
 31
0.0
  0
SOLID
  5
77CE
330
7651
100
AcDbEntity
  8
标注
100
AcDbTrace
 10
1094.869037908409
 20
135.6196585625228
 30
0.0
 11
1094.869037908409
 21
135.4029918958562
 31
0.0
 12
1094.219037908409
 22
135.5113252291895
 32
0.0
 13
1094.219037908409
 23
135.5113252291895
 33
0.0
  0
SOLID
  5
77CF
330
7651
100
AcDbEntity
  8
标注
100
AcDbTrace
 10
1111.569037908331
 20
135.6196585625228
 30
0.0
 11
1111.569037908331
 21
135.4029918958562
 31
0.0
 12
1112.219037908332
 22
135.5113252291895
 32
0.0
 13
1112.219037908332
 23
135.5113252291895
 33
0.0
  0
MTEXT
  5
77D0
330
7651
100
AcDbEntity
  8
标注
100
AcDbMText
 10
1103.21903790837
 20
135.5113252291895
 30
0.0
 40
0.65
 41
0.0
 71
     5
 72
     1
  1
\A1;18"
 73
     1
 44
1.0
1001
ACAD
1000
MTEXTBEGIN
1070
    73
1070
     1
1070
    44
1040
1.0
1070
    74
1070
     0
1000
MTEXTEND
  0
POINT
  5
77D1
330
7651
100
AcDbEntity
  8
DEFPOINTS
 62
     0
100
AcDbPoint
 10
1094.219037908409
 20
139.0429984336211
 30
0.0
  0
POINT
  5
77D2
330
7651
100
AcDbEntity
  8
DEFPOINTS
 62
     0
100
AcDbPoint
 10
1112.219037908332
 20
139.0429984336211
 30
0.0
  0
POINT
  5
77D3
330
7651
100
AcDbEntity
  8
DEFPOINTS
 62
     0
100
AcDbPoint
 10
1112.219037908332
 20
135.5113252291895
 30
0.0
  0
ENDBLK
  5
7653
330
7651
100
AcDbEntity
  8
0
100
AcDbBlockEnd
  0
BLOCK
  5
7660
330
765F
100
AcDbEntity
  8
0
100
AcDbBlockBegin
  2
*D277
 70
     1
 10
0.0
 20
0.0
 30
0.0
  3
*D277
  1

  0
LINE
  5
77D4
330
765F
100
AcDbEntity
  8
标注
370
    -2
100
AcDbLine
 10
1113.219037908341
 20
138.162998433621
 30
0.0
 11
1113.219037908341
 21
135.1913252291895
 31
0.0
  0
LINE
  5
77D5
330
765F
100
AcDbEntity
  8
标注
370
    -2
100
AcDbLine
 10
1124.219037908293
 20
138.162998433621
 30
0.0
 11
1124.219037908293
 21
135.1913252291895
 31
0.0
  0
LINE
  5
77D6
330
765F
100
AcDbEntity
  8
标注
370
    -2
100
AcDbLine
 10
1113.869037908341
 20
135.5113252291895
 30
0.0
 11
1117.823574061114
 21
135.5113252291895
 31
0.0
  0
LINE
  5
77D7
330
765F
100
AcDbEntity
  8
标注
370
    -2
100
AcDbLine
 10
1123.569037908293
 20
135.5113252291895
 30
0.0
 11
1119.61450175552
 21
135.5113252291895
 31
0.0
  0
SOLID
  5
77D8
330
765F
100
AcDbEntity
  8
标注
100
AcDbTrace
 10
1113.869037908341
 20
135.6196585625228
 30
0.0
 11
1113.869037908341
 21
135.4029918958562
 31
0.0
 12
1113.219037908341
 22
135.5113252291895
 32
0.0
 13
1113.219037908341
 23
135.5113252291895
 33
0.0
  0
SOLID
  5
77D9
330
765F
100
AcDbEntity
  8
标注
100
AcDbTrace
 10
1123.569037908293
 20
135.6196585625228
 30
0.0
 11
1123.569037908293
 21
135.4029918958562
 31
0.0
 12
1124.219037908293
 22
135.5113252291895
 32
0.0
 13
1124.219037908293
 23
135.5113252291895
 33
0.0
  0
MTEXT
  5
77DA
330
765F
100
AcDbEntity
  8
标注
100
AcDbMText
 10
1118.719037908317
 20
135.5113252291895
 30
0.0
 40
0.65
 41
0.0
 71
     5
 72
     1
  1
\A1;11"
 73
     1
 44
1.0
1001
ACAD
1000
MTEXTBEGIN
1070
    73
1070
     1
1070
    44
1040
1.0
1070
    74
1070
     0
1000
MTEXTEND
  0
POINT
  5
77DB
330
765F
100
AcDbEntity
  8
DEFPOINTS
 62
     0
100
AcDbPoint
 10
1113.219037908341
 20
139.0429984336211
 30
0.0
  0
POINT
  5
77DC
330
765F
100
AcDbEntity
  8
DEFPOINTS
 62
     0
100
AcDbPoint
 10
1124.219037908293
 20
139.0429984336211
 30
0.0
  0
POINT
  5
77DD
330
765F
100
AcDbEntity
  8
DEFPOINTS
 62
     0
100
AcDbPoint
 10
1124.219037908293
 20
135.5113252291895
 30
0.0
  0
ENDBLK
  5
7661
330
765F
100
AcDbEntity
  8
0
100
AcDbBlockEnd
  0
BLOCK
  5
766E
330
766D
100
AcDbEntity
  8
0
100
AcDbBlockBegin
  2
*D278
 70
     1
 10
0.0
 20
0.0
 30
0.0
  3
*D278
  1

  0
LINE
  5
77DE
330
766D
100
AcDbEntity
  8
标注
370
    -2
100
AcDbLine
 10
1093.732738695828
 20
138.6492976462309
 30
0.0
 11
1090.728333272927
 21
138.6492976462309
 31
0.0
  0
LINE
  5
77DF
330
766D
100
AcDbEntity
  8
标注
370
    -2
100
AcDbLine
 10
1093.732738695828
 20
156.6492976461727
 30
0.0
 11
1090.728333272927
 21
156.6492976461727
 31
0.0
  0
LINE
  5
77E0
330
766D
100
AcDbEntity
  8
标注
370
    -2
100
AcDbLine
 10
1091.048333272927
 20
139.2992976462309
 30
0.0
 11
1091.048333272927
 21
146.7538337989986
 31
0.0
  0
LINE
  5
77E1
330
766D
100
AcDbEntity
  8
标注
370
    -2
100
AcDbLine
 10
1091.048333272927
 20
155.9992976461727
 30
0.0
 11
1091.048333272927
 21
148.5447614934051
 31
0.0
  0
SOLID
  5
77E2
330
766D
100
AcDbEntity
  8
标注
100
AcDbTrace
 10
1090.939999939593
 20
139.2992976462309
 30
0.0
 11
1091.15666660626
 21
139.2992976462309
 31
0.0
 12
1091.048333272927
 22
138.6492976462309
 32
0.0
 13
1091.048333272927
 23
138.6492976462309
 33
0.0
  0
SOLID
  5
77E3
330
766D
100
AcDbEntity
  8
标注
100
AcDbTrace
 10
1090.939999939593
 20
155.9992976461727
 30
0.0
 11
1091.15666660626
 21
155.9992976461727
 31
0.0
 12
1091.048333272927
 22
156.6492976461727
 32
0.0
 13
1091.048333272927
 23
156.6492976461727
 33
0.0
  0
MTEXT
  5
77E4
330
766D
100
AcDbEntity
  8
标注
100
AcDbMText
 10
1091.048333272927
 20
147.649297646202
 30
0.0
 40
0.65
 41
0.0
 71
     5
 72
     1
  1
\A1;18"
 11
0.0000000000000001
 21
1.0
 31
0.0
 73
     1
 44
1.0
1001
ACAD
1000
MTEXTBEGIN
1070
    73
1070
     1
1070
    44
1040
1.0
1070
    74
1070
     0
1000
MTEXTEND
  0
POINT
  5
77E5
330
766D
100
AcDbEntity
  8
DEFPOINTS
 62
     0
100
AcDbPoint
 10
1094.612738695828
 20
138.6492976462309
 30
0.0
  0
POINT
  5
77E6
330
766D
100
AcDbEntity
  8
DEFPOINTS
 62
     0
100
AcDbPoint
 10
1094.612738695828
 20
156.6492976461727
 30
0.0
  0
POINT
  5
77E7
330
766D
100
AcDbEntity
  8
DEFPOINTS
 62
     0
100
AcDbPoint
 10
1091.048333272927
 20
156.6492976461727
 30
0.0
  0
ENDBLK
  5
766F
330
766D
100
AcDbEntity
  8
0
100
AcDbBlockEnd
  0
BLOCK
  5
767C
330
767B
100
AcDbEntity
  8
0
100
AcDbBlockBegin
  2
*D279
 70
     1
 10
0.0
 20
0.0
 30
0.0
  3
*D279
  1

  0
LINE
  5
77E8
330
767B
100
AcDbEntity
  8
标注
370
    -2
100
AcDbLine
 10
1093.339037908409
 20
137.6492976462309
 30
0.0
 11
1088.629100061997
 21
137.6492976462309
 31
0.0
  0
LINE
  5
77E9
330
767B
100
AcDbEntity
  8
标注
370
    -2
100
AcDbLine
 10
1093.339037908296
 20
157.6492976461445
 30
0.0
 11
1088.629100061997
 21
157.6492976461445
 31
0.0
  0
LINE
  5
77EA
330
767B
100
AcDbEntity
  8
标注
370
    -2
100
AcDbLine
 10
1088.949100061997
 20
138.2992976462309
 30
0.0
 11
1088.949100061997
 21
146.7176980554646
 31
0.0
  0
LINE
  5
77EB
330
767B
100
AcDbEntity
  8
标注
370
    -2
100
AcDbLine
 10
1088.949100061997
 20
156.9992976461445
 30
0.0
 11
1088.949100061997
 21
148.5808972369108
 31
0.0
  0
SOLID
  5
77EC
330
767B
100
AcDbEntity
  8
标注
100
AcDbTrace
 10
1088.840766728663
 20
138.2992976462309
 30
0.0
 11
1089.05743339533
 21
138.2992976462309
 31
0.0
 12
1088.949100061997
 22
137.6492976462309
 32
0.0
 13
1088.949100061997
 23
137.6492976462309
 33
0.0
  0
SOLID
  5
77ED
330
767B
100
AcDbEntity
  8
标注
100
AcDbTrace
 10
1088.840766728663
 20
156.9992976461445
 30
0.0
 11
1089.05743339533
 21
156.9992976461445
 31
0.0
 12
1088.949100061997
 22
157.6492976461445
 32
0.0
 13
1088.949100061997
 23
157.6492976461445
 33
0.0
  0
MTEXT
  5
77EE
330
767B
100
AcDbEntity
  8
标注
100
AcDbMText
 10
1088.949100061997
 20
147.6492976461879
 30
0.0
 40
0.65
 41
0.0
 71
     5
 72
     1
  1
\A1;20"
 11
0.0000000000000001
 21
1.0
 31
0.0
 73
     1
 44
1.0
1001
ACAD
1000
MTEXTBEGIN
1070
    73
1070
     1
1070
    44
1040
1.0
1070
    74
1070
     0
1000
MTEXTEND
  0
POINT
  5
77EF
330
767B
100
AcDbEntity
  8
DEFPOINTS
 62
     0
100
AcDbPoint
 10
1094.219037908409
 20
137.6492976462309
 30
0.0
  0
POINT
  5
77F0
330
767B
100
AcDbEntity
  8
DEFPOINTS
 62
     0
100
AcDbPoint
 10
1094.219037908296
 20
157.6492976461445
 30
0.0
  0
POINT
  5
77F1
330
767B
100
AcDbEntity
  8
DEFPOINTS
 62
     0
100
AcDbPoint
 10
1088.949100061997
 20
157.6492976461445
 30
0.0
  0
ENDBLK
  5
767D
330
767B
100
AcDbEntity
  8
0
100
AcDbBlockEnd
  0
BLOCK
  5
768A
330
7689
100
AcDbEntity
  8
0
100
AcDbBlockBegin
  2
*D280
 70
     1
 10
0.0
 20
0.0
 30
0.0
  3
*D280
  1

  0
LINE
  5
77F2
330
7689
100
AcDbEntity
  8
标注
370
    -2
100
AcDbLine
 10
1124.705337120903
 20
138.6492976462309
 30
0.0
 11
1127.230265449214
 21
138.6492976462309
 31
0.0
  0
LINE
  5
77F3
330
7689
100
AcDbEntity
  8
标注
370
    -2
100
AcDbLine
 10
1124.705337120903
 20
153.6492976461727
 30
0.0
 11
1127.230265449214
 21
153.6492976461727
 31
0.0
  0
LINE
  5
77F4
330
7689
100
AcDbEntity
  8
标注
370
    -2
100
AcDbLine
 10
1126.910265449214
 20
139.2992976462309
 30
0.0
 11
1126.910265449214
 21
145.2538337989986
 31
0.0
  0
LINE
  5
77F5
330
7689
100
AcDbEntity
  8
标注
370
    -2
100
AcDbLine
 10
1126.910265449214
 20
152.9992976461727
 30
0.0
 11
1126.910265449214
 21
147.0447614934051
 31
0.0
  0
SOLID
  5
77F6
330
7689
100
AcDbEntity
  8
标注
100
AcDbTrace
 10
1126.801932115881
 20
139.2992976462309
 30
0.0
 11
1127.018598782548
 21
139.2992976462309
 31
0.0
 12
1126.910265449214
 22
138.6492976462309
 32
0.0
 13
1126.910265449214
 23
138.6492976462309
 33
0.0
  0
SOLID
  5
77F7
330
7689
100
AcDbEntity
  8
标注
100
AcDbTrace
 10
1126.801932115881
 20
152.9992976461727
 30
0.0
 11
1127.018598782548
 21
152.9992976461727
 31
0.0
 12
1126.910265449214
 22
153.6492976461727
 32
0.0
 13
1126.910265449214
 23
153.6492976461727
 33
0.0
  0
MTEXT
  5
77F8
330
7689
100
AcDbEntity
  8
标注
100
AcDbMText
 10
1126.910265449214
 20
146.149297646202
 30
0.0
 40
0.65
 41
0.0
 71
     5
 72
     1
  1
\A1;15"
 11
0.0000000000000001
 21
1.0
 31
0.0
 73
     1
 44
1.0
1001
ACAD
1000
MTEXTBEGIN
1070
    73
1070
     1
1070
    44
1040
1.0
1070
    74
1070
     0
1000
MTEXTEND
  0
POINT
  5
77F9
330
7689
100
AcDbEntity
  8
DEFPOINTS
 62
     0
100
AcDbPoint
 10
1123.825337120903
 20
138.6492976462309
 30
0.0
  0
POINT
  5
77FA
330
7689
100
AcDbEntity
  8
DEFPOINTS
 62
     0
100
AcDbPoint
 10
1123.825337120903
 20
153.6492976461727
 30
0.0
  0
POINT
  5
77FB
330
7689
100
AcDbEntity
  8
DEFPOINTS
 62
     0
100
AcDbPoint
 10
1126.910265449214
 20
153.6492976461727
 30
0.0
  0
ENDBLK
  5
768B
330
7689
100
AcDbEntity
  8
0
100
AcDbBlockEnd
  0
BLOCK
  5
7698
330
7697
100
AcDbEntity
  8
0
100
AcDbBlockBegin
  2
*D281
 70
     1
 10
0.0
 20
0.0
 30
0.0
  3
*D281
  1

  0
LINE
  5
77FC
330
7697
100
AcDbEntity
  8
标注
370
    -2
100
AcDbLine
 10
1125.099037908293
 20
137.6492976462309
 30
0.0
 11
1128.947244791557
 21
137.6492976462309
 31
0.0
  0
LINE
  5
77FD
330
7697
100
AcDbEntity
  8
标注
370
    -2
100
AcDbLine
 10
1125.099037908293
 20
154.6492976461727
 30
0.0
 11
1128.947244791557
 21
154.6492976461727
 31
0.0
  0
LINE
  5
77FE
330
7697
100
AcDbEntity
  8
标注
370
    -2
100
AcDbLine
 10
1128.627244791557
 20
138.2992976462309
 30
0.0
 11
1128.627244791557
 21
145.2538337989986
 31
0.0
  0
LINE
  5
77FF
330
7697
100
AcDbEntity
  8
标注
370
    -2
100
AcDbLine
 10
1128.627244791557
 20
153.9992976461727
 30
0.0
 11
1128.627244791557
 21
147.0447614934051
 31
0.0
  0
SOLID
  5
7800
330
7697
100
AcDbEntity
  8
标注
100
AcDbTrace
 10
1128.518911458224
 20
138.2992976462309
 30
0.0
 11
1128.735578124891
 21
138.2992976462309
 31
0.0
 12
1128.627244791557
 22
137.6492976462309
 32
0.0
 13
1128.627244791557
 23
137.6492976462309
 33
0.0
  0
SOLID
  5
7801
330
7697
100
AcDbEntity
  8
标注
100
AcDbTrace
 10
1128.518911458224
 20
153.9992976461727
 30
0.0
 11
1128.735578124891
 21
153.9992976461727
 31
0.0
 12
1128.627244791557
 22
154.6492976461727
 32
0.0
 13
1128.627244791557
 23
154.6492976461727
 33
0.0
  0
MTEXT
  5
7802
330
7697
100
AcDbEntity
  8
标注
100
AcDbMText
 10
1128.627244791557
 20
146.149297646202
 30
0.0
 40
0.65
 41
0.0
 71
     5
 72
     1
  1
\A1;17"
 11
0.0000000000000001
 21
1.0
 31
0.0
 73
     1
 44
1.0
1001
ACAD
1000
MTEXTBEGIN
1070
    73
1070
     1
1070
    44
1040
1.0
1070
    74
1070
     0
1000
MTEXTEND
  0
POINT
  5
7803
330
7697
100
AcDbEntity
  8
DEFPOINTS
 62
     0
100
AcDbPoint
 10
1124.219037908293
 20
137.6492976462309
 30
0.0
  0
POINT
  5
7804
330
7697
100
AcDbEntity
  8
DEFPOINTS
 62
     0
100
AcDbPoint
 10
1124.219037908293
 20
154.6492976461727
 30
0.0
  0
POINT
  5
7805
330
7697
100
AcDbEntity
  8
DEFPOINTS
 62
     0
100
AcDbPoint
 10
1128.627244791557
 20
154.6492976461727
 30
0.0
  0
ENDBLK
  5
7699
330
7697
100
AcDbEntity
  8
0
100
AcDbBlockEnd
  0
BLOCK
  5
76A6
330
76A5
100
AcDbEntity
  8
0
100
AcDbBlockBegin
  2
*D282
 70
     1
 10
0.0
 20
0.0
 30
0.0
  3
*D282
  1

  0
LINE
  5
7806
330
76A5
100
AcDbEntity
  8
标注
370
    -2
100
AcDbLine
 10
1093.219037908409
 20
137.7692976462309
 30
0.0
 11
1093.219037908409
 21
133.3930756036228
 31
0.0
  0
LINE
  5
7807
330
76A5
100
AcDbEntity
  8
标注
370
    -2
100
AcDbLine
 10
1125.219037908293
 20
137.7692976462309
 30
0.0
 11
1125.219037908293
 21
133.3930756036228
 31
0.0
  0
LINE
  5
7808
330
76A5
100
AcDbEntity
  8
标注
370
    -2
100
AcDbLine
 10
1093.869037908409
 20
133.7130756036228
 30
0.0
 11
1108.293202301257
 21
133.7130756036228
 31
0.0
  0
LINE
  5
7809
330
76A5
100
AcDbEntity
  8
标注
370
    -2
100
AcDbLine
 10
1124.569037908293
 20
133.7130756036228
 30
0.0
 11
1110.144873515445
 21
133.7130756036228
 31
0.0
  0
SOLID
  5
780A
330
76A5
100
AcDbEntity
  8
标注
100
AcDbTrace
 10
1093.869037908409
 20
133.8214089369561
 30
0.0
 11
1093.869037908409
 21
133.6047422702895
 31
0.0
 12
1093.219037908409
 22
133.7130756036228
 32
0.0
 13
1093.219037908409
 23
133.7130756036228
 33
0.0
  0
SOLID
  5
780B
330
76A5
100
AcDbEntity
  8
标注
100
AcDbTrace
 10
1124.569037908293
 20
133.8214089369561
 30
0.0
 11
1124.569037908293
 21
133.6047422702895
 31
0.0
 12
1125.219037908293
 22
133.7130756036228
 32
0.0
 13
1125.219037908293
 23
133.7130756036228
 33
0.0
  0
MTEXT
  5
780C
330
76A5
100
AcDbEntity
  8
标注
100
AcDbMText
 10
1109.219037908351
 20
133.7130756036228
 30
0.0
 40
0.65
 41
0.0
 71
     5
 72
     1
  1
\A1;32"
 73
     1
 44
1.0
1001
ACAD
1000
MTEXTBEGIN
1070
    73
1070
     1
1070
    44
1040
1.0
1070
    74
1070
     0
1000
MTEXTEND
  0
POINT
  5
780D
330
76A5
100
AcDbEntity
  8
DEFPOINTS
 62
     0
100
AcDbPoint
 10
1093.219037908409
 20
138.6492976462309
 30
0.0
  0
POINT
  5
780E
330
76A5
100
AcDbEntity
  8
DEFPOINTS
 62
     0
100
AcDbPoint
 10
1125.219037908293
 20
138.6492976462309
 30
0.0
  0
POINT
  5
780F
330
76A5
100
AcDbEntity
  8
DEFPOINTS
 62
     0
100
AcDbPoint
 10
1125.219037908293
 20
133.7130756036228
 30
0.0
  0
ENDBLK
  5
76A7
330
76A5
100
AcDbEntity
  8
0
100
AcDbBlockEnd
  0
BLOCK
  5
76B4
330
76B3
100
AcDbEntity
  8
0
100
AcDbBlockBegin
  2
*D283
 70
     1
 10
0.0
 20
0.0
 30
0.0
  3
*D283
  1

  0
LINE
  5
7810
330
76B3
100
AcDbEntity
  8
标注
370
    -2
100
AcDbLine
 10
1093.87626493558
 20
156.9951357246206
 30
0.0
 11
1093.417600967974
 21
157.4557085905384
 31
0.0
  0
MTEXT
  5
7811
330
76B3
100
AcDbEntity
  8
标注
100
AcDbMText
 10
1093.600253988969
 20
158.3447249952715
 30
0.0
 40
0.65
 41
0.0
 71
     5
 72
     1
  1
\A1;5-R3/8"
 11
0.7056368732401872
 21
-0.7085736398736634
 31
0.0
 73
     1
 44
1.0
1001
ACAD
1000
MTEXTBEGIN
1070
    73
1070
     1
1070
    44
1040
1.0
1070
    74
1070
     0
1000
MTEXTEND
  0
LINE
  5
7812
330
76B3
100
AcDbEntity
  8
标注
370
    -2
100
AcDbLine
 10
1094.6127386958
 20
156.2555968587534
 30
0.0
 11
1094.334928903186
 21
156.5345628587027
 31
0.0
  0
SOLID
  5
7813
330
76B3
100
AcDbEntity
  8
标注
100
AcDbTrace
 10
1093.9530270799
 20
157.0715797192216
 30
0.0
 11
1093.79950279126
 21
156.9186917300195
 31
0.0
 12
1094.334928903186
 22
156.5345628587027
 32
0.0
 13
1094.334928903186
 23
156.5345628587027
 33
0.0
  0
POINT
  5
7814
330
76B3
100
AcDbEntity
  8
DEFPOINTS
 62
     0
100
AcDbPoint
 10
1094.334928903186
 20
156.5345628587027
 30
0.0
  0
POINT
  5
7815
330
76B3
100
AcDbEntity
  8
DEFPOINTS
 62
     0
100
AcDbPoint
 10
1094.6127386958
 20
156.2555968587534
 30
0.0
  0
ENDBLK
  5
76B5
330
76B3
100
AcDbEntity
  8
0
100
AcDbBlockEnd
  0
BLOCK
  5
76BE
330
76BD
100
AcDbEntity
  8
0
100
AcDbBlockBegin
  2
*D284
 70
     1
 10
0.0
 20
0.0
 30
0.0
  3
*D284
  1

  0
LINE
  5
7816
330
76BD
100
AcDbEntity
  8
标注
370
    -2
100
AcDbLine
 10
1124.291583090298
 20
154.1893666535615
 30
0.0
 11
1124.581953552567
 21
154.7709034061764
 31
0.0
  0
MTEXT
  5
7817
330
76BD
100
AcDbEntity
  8
标注
100
AcDbMText
 10
1124.530643726963
 20
155.8799004967975
 30
0.0
 40
0.65
 41
0.0
 71
     5
 72
     1
  1
\A1;4-R3/8"
 11
0.4467237881053878
 21
0.8946719270999691
 31
0.0
 73
     1
 44
1.0
1001
ACAD
1000
MTEXTBEGIN
1070
    73
1070
     1
1070
    44
1040
1.0
1070
    74
1070
     0
1000
MTEXTEND
  0
LINE
  5
7818
330
76BD
100
AcDbEntity
  8
标注
370
    -2
100
AcDbLine
 10
1123.825337120903
 20
153.2555968587827
 30
0.0
 11
1124.00121262803
 21
153.6078299009465
 31
0.0
  0
SOLID
  5
7819
330
76BD
100
AcDbEntity
  8
标注
100
AcDbTrace
 10
1124.194660298196
 20
154.2377617306062
 30
0.0
 11
1124.388505882401
 21
154.1409715765167
 31
0.0
 12
1124.00121262803
 22
153.6078299009465
 32
0.0
 13
1124.00121262803
 23
153.6078299009465
 33
0.0
  0
POINT
  5
781A
330
76BD
100
AcDbEntity
  8
DEFPOINTS
 62
     0
100
AcDbPoint
 10
1124.00121262803
 20
153.6078299009465
 30
0.0
  0
POINT
  5
781B
330
76BD
100
AcDbEntity
  8
DEFPOINTS
 62
     0
100
AcDbPoint
 10
1123.825337120903
 20
153.2555968587827
 30
0.0
  0
ENDBLK
  5
76BF
330
76BD
100
AcDbEntity
  8
0
100
AcDbBlockEnd
  0
BLOCK
  5
76EC
330
76EB
100
AcDbEntity
  8
0
100
AcDbBlockBegin
  2
*D285
 70
     1
 10
0.0
 20
0.0
 30
0.0
  3
*D285
  1

  0
LINE
  5
781C
330
76EB
100
AcDbEntity
  8
标注
370
    -2
100
AcDbLine
 10
1126.099037908293
 20
180.2520553898191
 30
0.0
 11
1126.704445311587
 21
180.2520553898191
 31
0.0
  0
LINE
  5
781D
330
76EB
100
AcDbEntity
  8
标注
370
    -2
100
AcDbLine
 10
1125.2099719636
 20
172.3114609016493
 30
0.0
 11
1126.704445311587
 21
172.3114609016493
 31
0.0
  0
LINE
  5
781E
330
76EB
100
AcDbEntity
  8
标注
370
    -2
100
AcDbLine
 10
1126.384445311588
 20
179.6020553898191
 30
0.0
 11
1126.384445311588
 21
176.95575200658
 31
0.0
  0
LINE
  5
781F
330
76EB
100
AcDbEntity
  8
标注
370
    -2
100
AcDbLine
 10
1126.384445311588
 20
172.9614609016492
 30
0.0
 11
1126.384445311588
 21
175.6077642848883
 31
0.0
  0
SOLID
  5
7820
330
76EB
100
AcDbEntity
  8
标注
100
AcDbTrace
 10
1126.276111978254
 20
179.6020553898191
 30
0.0
 11
1126.492778644921
 21
179.6020553898191
 31
0.0
 12
1126.384445311588
 22
180.2520553898191
 32
0.0
 13
1126.384445311588
 23
180.2520553898191
 33
0.0
  0
SOLID
  5
7821
330
76EB
100
AcDbEntity
  8
标注
100
AcDbTrace
 10
1126.276111978254
 20
172.9614609016492
 30
0.0
 11
1126.492778644921
 21
172.9614609016492
 31
0.0
 12
1126.384445311588
 22
172.3114609016493
 32
0.0
 13
1126.384445311588
 23
172.3114609016493
 33
0.0
  0
MTEXT
  5
7822
330
76EB
100
AcDbEntity
  8
标注
100
AcDbMText
 10
1126.384445311588
 20
176.2817581457344
 30
0.0
 40
0.65
 41
0.0
 71
     5
 72
     1
  1
\A1;8"
 11
0.0000000000000001
 21
1.0
 31
0.0
 73
     1
 44
1.0
1001
ACAD
1000
MTEXTBEGIN
1070
    73
1070
     1
1070
    44
1040
1.0
1070
    74
1070
     0
1000
MTEXTEND
  0
POINT
  5
7823
330
76EB
100
AcDbEntity
  8
DEFPOINTS
 62
     0
100
AcDbPoint
 10
1125.219037908293
 20
180.2520553898191
 30
0.0
  0
POINT
  5
7824
330
76EB
100
AcDbEntity
  8
DEFPOINTS
 62
     0
100
AcDbPoint
 10
1124.3299719636
 20
172.3114609016493
 30
0.0
  0
POINT
  5
7825
330
76EB
100
AcDbEntity
  8
DEFPOINTS
 62
     0
100
AcDbPoint
 10
1126.384445311588
 20
172.3114609016493
 30
0.0
  0
ENDBLK
  5
76ED
330
76EB
100
AcDbEntity
  8
0
100
AcDbBlockEnd
  0
BLOCK
  5
770E
330
770D
100
AcDbEntity
  8
0
100
AcDbBlockBegin
  2
*D286
 70
     1
 10
0.0
 20
0.0
 30
0.0
  3
*D286
  1

  0
LINE
  5
7826
330
770D
100
AcDbEntity
  8
标注
370
    -2
100
AcDbLine
 10
1092.339037908409
 20
180.2520553898191
 30
0.0
 11
1090.297624076173
 21
180.2520553898191
 31
0.0
  0
LINE
  5
7827
330
770D
100
AcDbEntity
  8
标注
370
    -2
100
AcDbLine
 10
1092.476586291607
 20
170.1897237893847
 30
0.0
 11
1090.297624076173
 21
170.1897237893847
 31
0.0
  0
LINE
  5
7828
330
770D
100
AcDbEntity
  8
标注
370
    -2
100
AcDbLine
 10
1090.617624076173
 20
179.6020553898191
 30
0.0
 11
1090.617624076173
 21
176.1163534368052
 31
0.0
  0
LINE
  5
7829
330
770D
100
AcDbEntity
  8
标注
370
    -2
100
AcDbLine
 10
1090.617624076173
 20
170.8397237893848
 30
0.0
 11
1090.617624076173
 21
174.3254257423986
 31
0.0
  0
SOLID
  5
782A
330
770D
100
AcDbEntity
  8
标注
100
AcDbTrace
 10
1090.509290742839
 20
179.6020553898191
 30
0.0
 11
1090.725957409506
 21
179.6020553898191
 31
0.0
 12
1090.617624076173
 22
180.2520553898191
 32
0.0
 13
1090.617624076173
 23
180.2520553898191
 33
0.0
  0
SOLID
  5
782B
330
770D
100
AcDbEntity
  8
标注
100
AcDbTrace
 10
1090.509290742839
 20
170.8397237893848
 30
0.0
 11
1090.725957409506
 21
170.8397237893848
 31
0.0
 12
1090.617624076173
 22
170.1897237893847
 32
0.0
 13
1090.617624076173
 23
170.1897237893847
 33
0.0
  0
MTEXT
  5
782C
330
770D
100
AcDbEntity
  8
标注
100
AcDbMText
 10
1090.617624076173
 20
175.2208895896021
 30
0.0
 40
0.65
 41
0.0
 71
     5
 72
     1
  1
\A1;10"
 11
0.0000000000000001
 21
1.0
 31
0.0
 73
     1
 44
1.0
1001
ACAD
1000
MTEXTBEGIN
1070
    73
1070
     1
1070
    44
1040
1.0
1070
    74
1070
     0
1000
MTEXTEND
  0
POINT
  5
782D
330
770D
100
AcDbEntity
  8
DEFPOINTS
 62
     0
100
AcDbPoint
 10
1093.219037908409
 20
180.2520553898191
 30
0.0
  0
POINT
  5
782E
330
770D
100
AcDbEntity
  8
DEFPOINTS
 62
     0
100
AcDbPoint
 10
1093.356586291608
 20
170.1897237893847
 30
0.0
  0
POINT
  5
782F
330
770D
100
AcDbEntity
  8
DEFPOINTS
 62
     0
100
AcDbPoint
 10
1090.617624076173
 20
170.1897237893847
 30
0.0
  0
ENDBLK
  5
770F
330
770D
100
AcDbEntity
  8
0
100
AcDbBlockEnd
  0
BLOCK
  5
7746
330
7745
100
AcDbEntity
  8
0
100
AcDbBlockBegin
  2
*D287
 70
     1
 10
0.0
 20
0.0
 30
0.0
  3
*D287
  1

  0
LINE
  5
7830
330
7745
100
AcDbEntity
  8
标注
370
    -2
100
AcDbLine
 10
1093.802240785223
 20
170.0507709463767
 30
0.0
 11
1093.297475771884
 21
169.6412440470058
 31
0.0
  0
MTEXT
  5
7831
330
7745
100
AcDbEntity
  8
标注
100
AcDbMText
 10
1095.198511755165
 20
171.6841163083834
 30
0.0
 40
0.65
 41
0.0
 71
     5
 72
     1
  1
\A1;R3/8"
 11
0.7765615589838496
 21
0.6300413836475928
 31
0.0
 73
     1
 44
1.0
1001
ACAD
1000
MTEXTBEGIN
1070
    73
1070
     1
1070
    44
1040
1.0
1070
    74
1070
     0
1000
MTEXTEND
  0
LINE
  5
7832
330
7745
100
AcDbEntity
  8
标注
370
    -2
100
AcDbLine
 10
1094.6127386958
 20
170.7083456345843
 30
0.0
 11
1094.307005798563
 21
170.4602978457476
 31
0.0
  0
SOLID
  5
7833
330
7745
100
AcDbEntity
  8
标注
100
AcDbTrace
 10
1093.733986301995
 20
170.1348984486
 30
0.0
 11
1093.870495268451
 21
169.9666434441534
 31
0.0
 12
1094.307005798563
 22
170.4602978457476
 32
0.0
 13
1094.307005798563
 23
170.4602978457476
 33
0.0
  0
POINT
  5
7834
330
7745
100
AcDbEntity
  8
DEFPOINTS
 62
     0
100
AcDbPoint
 10
1094.307005798563
 20
170.4602978457476
 30
0.0
  0
POINT
  5
7835
330
7745
100
AcDbEntity
  8
DEFPOINTS
 62
     0
100
AcDbPoint
 10
1094.6127386958
 20
170.7083456345843
 30
0.0
  0
ENDBLK
  5
7747
330
7745
100
AcDbEntity
  8
0
100
AcDbBlockEnd
  0
BLOCK
  5
7750
330
774F
100
AcDbEntity
  8
0
100
AcDbBlockBegin
  2
*D288
 70
     1
 10
0.0
 20
0.0
 30
0.0
  3
*D288
  1

  0
LINE
  5
7836
330
774F
100
AcDbEntity
  8
标注
370
    -2
100
AcDbLine
 10
1112.872264177389
 20
171.9753720636373
 30
0.0
 11
1112.411108602228
 21
171.5172939747729
 31
0.0
  0
MTEXT
  5
7837
330
774F
100
AcDbEntity
  8
标注
100
AcDbMText
 10
1114.150678800255
 20
173.7005345679518
 30
0.0
 40
0.65
 41
0.0
 71
     5
 72
     1
  1
\A1;R3/8"
 11
0.7094701156328542
 21
0.7047355213297429
 31
0.0
 73
     1
 44
1.0
1001
ACAD
1000
MTEXTBEGIN
1070
    73
1070
     1
1070
    44
1040
1.0
1070
    74
1070
     0
1000
MTEXTEND
  0
LINE
  5
7838
330
774F
100
AcDbEntity
  8
标注
370
    -2
100
AcDbLine
 10
1113.612738695712
 20
172.7109050821579
 30
0.0
 11
1113.333419752551
 21
172.4334501525015
 31
0.0
  0
SOLID
  5
7839
330
774F
100
AcDbEntity
  8
标注
100
AcDbTrace
 10
1112.795917829245
 20
172.0522313261642
 30
0.0
 11
1112.948610525533
 21
171.8985128011103
 31
0.0
 12
1113.333419752551
 22
172.4334501525015
 32
0.0
 13
1113.333419752551
 23
172.4334501525015
 33
0.0
  0
POINT
  5
783A
330
774F
100
AcDbEntity
  8
DEFPOINTS
 62
     0
100
AcDbPoint
 10
1113.333419752551
 20
172.4334501525015
 30
0.0
  0
POINT
  5
783B
330
774F
100
AcDbEntity
  8
DEFPOINTS
 62
     0
100
AcDbPoint
 10
1113.612738695712
 20
172.7109050821579
 30
0.0
  0
ENDBLK
  5
7751
330
774F
100
AcDbEntity
  8
0
100
AcDbBlockEnd
  0
BLOCK
  5
7766
330
7765
100
AcDbEntity
  8
0
100
AcDbBlockBegin
  2
*D289
 70
     1
 10
0.0
 20
0.0
 30
0.0
  3
*D289
  1

  0
LINE
  5
783C
330
7765
100
AcDbEntity
  8
标注
370
    -2
100
AcDbLine
 10
1094.140297750931
 20
102.9269107860633
 30
0.0
 11
1094.140297750931
 21
100.45367402825
 31
0.0
  0
LINE
  5
783D
330
7765
100
AcDbEntity
  8
标注
370
    -2
100
AcDbLine
 10
1124.297778065771
 20
102.9269107860633
 30
0.0
 11
1124.297778065771
 21
100.45367402825
 31
0.0
  0
LINE
  5
783E
330
7765
100
AcDbEntity
  8
标注
370
    -2
100
AcDbLine
 10
1094.790297750931
 20
100.77367402825
 30
0.0
 11
1107.535903529088
 21
100.77367402825
 31
0.0
  0
LINE
  5
783F
330
7765
100
AcDbEntity
  8
标注
370
    -2
100
AcDbLine
 10
1123.64777806577
 20
100.77367402825
 30
0.0
 11
1110.902172287614
 21
100.77367402825
 31
0.0
  0
SOLID
  5
7840
330
7765
100
AcDbEntity
  8
标注
100
AcDbTrace
 10
1094.790297750931
 20
100.8820073615833
 30
0.0
 11
1094.790297750931
 21
100.6653406949167
 31
0.0
 12
1094.140297750931
 22
100.77367402825
 32
0.0
 13
1094.140297750931
 23
100.77367402825
 33
0.0
  0
SOLID
  5
7841
330
7765
100
AcDbEntity
  8
标注
100
AcDbTrace
 10
1123.64777806577
 20
100.8820073615833
 30
0.0
 11
1123.64777806577
 21
100.6653406949167
 31
0.0
 12
1124.297778065771
 22
100.77367402825
 32
0.0
 13
1124.297778065771
 23
100.77367402825
 33
0.0
  0
MTEXT
  5
7842
330
7765
100
AcDbEntity
  8
标注
100
AcDbMText
 10
1109.219037908351
 20
100.77367402825
 30
0.0
 40
0.65
 41
0.0
 71
     5
 72
     1
  1
\A1;30 1/8"
 73
     1
 44
1.0
1001
ACAD
1000
MTEXTBEGIN
1070
    73
1070
     1
1070
    44
1040
1.0
1070
    74
1070
     0
1000
MTEXTEND
  0
POINT
  5
7843
330
7765
100
AcDbEntity
  8
DEFPOINTS
 62
     0
100
AcDbPoint
 10
1094.140297750931
 20
103.8069107860633
 30
0.0
  0
POINT
  5
7844
330
7765
100
AcDbEntity
  8
DEFPOINTS
 62
     0
100
AcDbPoint
 10
1124.297778065771
 20
103.8069107860633
 30
0.0
  0
POINT
  5
7845
330
7765
100
AcDbEntity
  8
DEFPOINTS
 62
     0
100
AcDbPoint
 10
1124.297778065771
 20
100.77367402825
 30
0.0
  0
ENDBLK
  5
7767
330
7765
100
AcDbEntity
  8
0
100
AcDbBlockEnd
  0
BLOCK
  5
7774
330
7773
100
AcDbEntity
  8
0
100
AcDbBlockBegin
  2
*D290
 70
     1
 10
0.0
 20
0.0
 30
0.0
  3
*D290
  1

  0
LINE
  5
7846
330
7773
100
AcDbEntity
  8
标注
370
    -2
100
AcDbLine
 10
1124.705337120903
 20
103.3344698411661
 30
0.0
 11
1126.861296074281
 21
103.3344698411661
 31
0.0
  0
LINE
  5
7847
330
7773
100
AcDbEntity
  8
标注
370
    -2
100
AcDbLine
 10
1124.705337120903
 20
118.4919501560758
 30
0.0
 11
1126.861296074281
 21
118.4919501560758
 31
0.0
  0
LINE
  5
7848
330
7773
100
AcDbEntity
  8
标注
370
    -2
100
AcDbLine
 10
1126.541296074281
 20
103.9844698411661
 30
0.0
 11
1126.541296074281
 21
109.2604473792485
 31
0.0
  0
LINE
  5
7849
330
7773
100
AcDbEntity
  8
标注
370
    -2
100
AcDbLine
 10
1126.541296074281
 20
117.8419501560758
 30
0.0
 11
1126.541296074281
 21
112.5659726179934
 31
0.0
  0
SOLID
  5
784A
330
7773
100
AcDbEntity
  8
标注
100
AcDbTrace
 10
1126.432962740947
 20
103.9844698411661
 30
0.0
 11
1126.649629407614
 21
103.9844698411661
 31
0.0
 12
1126.541296074281
 22
103.3344698411661
 32
0.0
 13
1126.541296074281
 23
103.3344698411661
 33
0.0
  0
SOLID
  5
784B
330
7773
100
AcDbEntity
  8
标注
100
AcDbTrace
 10
1126.432962740947
 20
117.8419501560758
 30
0.0
 11
1126.649629407614
 21
117.8419501560758
 31
0.0
 12
1126.541296074281
 22
118.4919501560758
 32
0.0
 13
1126.541296074281
 23
118.4919501560758
 33
0.0
  0
MTEXT
  5
784C
330
7773
100
AcDbEntity
  8
标注
100
AcDbMText
 10
1126.541296074281
 20
110.9132099986211
 30
0.0
 40
0.65
 41
0.0
 71
     5
 72
     1
  1
\A1;15 1/8"
 11
0.0000000000000001
 21
1.0
 31
0.0
 73
     1
 44
1.0
1001
ACAD
1000
MTEXTBEGIN
1070
    73
1070
     1
1070
    44
1040
1.0
1070
    74
1070
     0
1000
MTEXTEND
  0
POINT
  5
784D
330
7773
100
AcDbEntity
  8
DEFPOINTS
 62
     0
100
AcDbPoint
 10
1123.825337120903
 20
103.3344698411661
 30
0.0
  0
POINT
  5
784E
330
7773
100
AcDbEntity
  8
DEFPOINTS
 62
     0
100
AcDbPoint
 10
1123.825337120903
 20
118.4919501560758
 30
0.0
  0
POINT
  5
784F
330
7773
100
AcDbEntity
  8
DEFPOINTS
 62
     0
100
AcDbPoint
 10
1126.541296074281
 20
118.4919501560758
 30
0.0
  0
ENDBLK
  5
7775
330
7773
100
AcDbEntity
  8
0
100
AcDbBlockEnd
  0
BLOCK
  5
7782
330
7781
100
AcDbEntity
  8
0
100
AcDbBlockBegin
  2
*D291
 70
     1
 10
0.0
 20
0.0
 30
0.0
  3
*D291
  1

  0
LINE
  5
7850
330
7781
100
AcDbEntity
  8
标注
370
    -2
100
AcDbLine
 10
1093.732738695799
 20
121.4919501560639
 30
0.0
 11
1091.348689843156
 21
121.4919501560639
 31
0.0
  0
LINE
  5
7851
330
7781
100
AcDbEntity
  8
标注
370
    -2
100
AcDbLine
 10
1093.732738695799
 20
103.3344698411661
 30
0.0
 11
1091.348689843156
 21
103.3344698411661
 31
0.0
  0
LINE
  5
7852
330
7781
100
AcDbEntity
  8
标注
370
    -2
100
AcDbLine
 10
1091.668689843156
 20
120.8419501560639
 30
0.0
 11
1091.668689843156
 21
114.0659726179874
 31
0.0
  0
LINE
  5
7853
330
7781
100
AcDbEntity
  8
标注
370
    -2
100
AcDbLine
 10
1091.668689843156
 20
103.9844698411661
 30
0.0
 11
1091.668689843156
 21
110.7604473792426
 31
0.0
  0
SOLID
  5
7854
330
7781
100
AcDbEntity
  8
标注
100
AcDbTrace
 10
1091.560356509823
 20
120.8419501560639
 30
0.0
 11
1091.77702317649
 21
120.8419501560639
 31
0.0
 12
1091.668689843156
 22
121.4919501560639
 32
0.0
 13
1091.668689843156
 23
121.4919501560639
 33
0.0
  0
SOLID
  5
7855
330
7781
100
AcDbEntity
  8
标注
100
AcDbTrace
 10
1091.560356509823
 20
103.9844698411661
 30
0.0
 11
1091.77702317649
 21
103.9844698411661
 31
0.0
 12
1091.668689843156
 22
103.3344698411661
 32
0.0
 13
1091.668689843156
 23
103.3344698411661
 33
0.0
  0
MTEXT
  5
7856
330
7781
100
AcDbEntity
  8
标注
100
AcDbMText
 10
1091.668689843156
 20
112.4132099986152
 30
0.0
 40
0.65
 41
0.0
 71
     5
 72
     1
  1
\A1;18 1/8"
 11
0.0000000000000001
 21
1.0
 31
0.0
 73
     1
 44
1.0
1001
ACAD
1000
MTEXTBEGIN
1070
    73
1070
     1
1070
    44
1040
1.0
1070
    74
1070
     0
1000
MTEXTEND
  0
POINT
  5
7857
330
7781
100
AcDbEntity
  8
DEFPOINTS
 62
     0
100
AcDbPoint
 10
1094.612738695799
 20
121.4919501560639
 30
0.0
  0
POINT
  5
7858
330
7781
100
AcDbEntity
  8
DEFPOINTS
 62
     0
100
AcDbPoint
 10
1094.612738695799
 20
103.3344698411661
 30
0.0
  0
POINT
  5
7859
330
7781
100
AcDbEntity
  8
DEFPOINTS
 62
     0
100
AcDbPoint
 10
1091.668689843156
 20
103.3344698411661
 30
0.0
  0
ENDBLK
  5
7783
330
7781
100
AcDbEntity
  8
0
100
AcDbBlockEnd
  0
BLOCK
  5
779C
330
779B
100
AcDbEntity
  8
0
100
AcDbBlockBegin
  2
*D292
 70
     1
 10
0.0
 20
0.0
 30
0.0
  3
*D292
  1

  0
LINE
  5
785A
330
779B
100
AcDbEntity
  8
标注
370
    -2
100
AcDbLine
 10
1094.000393770082
 20
102.8662156352885
 30
0.0
 11
1093.645787852032
 21
102.3214637258071
 31
0.0
  0
MTEXT
  5
785B
330
779B
100
AcDbEntity
  8
标注
100
AcDbMText
 10
1095.007723061172
 20
104.9823665217169
 30
0.0
 40
0.65
 41
0.0
 71
     5
 72
     1
  1
\A1;4-R1/2"
 11
0.5455475662312493
 21
0.8380798607407056
 31
0.0
 73
     1
 44
1.0
1001
ACAD
1000
MTEXTBEGIN
1070
    73
1070
     1
1070
    44
1040
1.0
1070
    74
1070
     0
1000
MTEXTEND
  0
LINE
  5
785C
330
779B
100
AcDbEntity
  8
标注
370
    -2
100
AcDbLine
 10
1094.6127386958
 20
103.8069107860634
 30
0.0
 11
1094.354999688132
 21
103.4109675447701
 31
0.0
  0
SOLID
  5
785D
330
779B
100
AcDbEntity
  8
标注
100
AcDbTrace
 10
1093.909601785168
 20
102.9253166216303
 30
0.0
 11
1094.091185754995
 21
102.8071146489468
 31
0.0
 12
1094.354999688132
 22
103.4109675447701
 32
0.0
 13
1094.354999688132
 23
103.4109675447701
 33
0.0
  0
POINT
  5
785E
330
779B
100
AcDbEntity
  8
DEFPOINTS
 62
     0
100
AcDbPoint
 10
1094.354999688132
 20
103.4109675447701
 30
0.0
  0
POINT
  5
785F
330
779B
100
AcDbEntity
  8
DEFPOINTS
 62
     0
100
AcDbPoint
 10
1094.6127386958
 20
103.8069107860634
 30
0.0
  0
ENDBLK
  5
779D
330
779B
100
AcDbEntity
  8
0
100
AcDbBlockEnd
  0
BLOCK
  5
77A6
330
77A5
100
AcDbEntity
  8
0
100
AcDbBlockBegin
  2
*D293
 70
     1
 10
0.0
 20
0.0
 30
0.0
  3
*D293
  1

  0
LINE
  5
7860
330
77A5
100
AcDbEntity
  8
标注
370
    -2
100
AcDbLine
 10
1111.886533972846
 20
117.992092217273
 30
0.0
 11
1111.561771314293
 21
117.429038742362
 31
0.0
  0
MTEXT
  5
7861
330
77A5
100
AcDbEntity
  8
标注
100
AcDbMText
 10
1112.539704507055
 20
120.0034754309798
 30
0.0
 40
0.65
 41
0.0
 71
     5
 72
     1
  1
\A1;R1/2"
 11
0.4996348593125618
 21
0.8662361152478673
 31
0.0
 73
     1
 44
1.0
1001
ACAD
1000
MTEXTBEGIN
1070
    73
1070
     1
1070
    44
1040
1.0
1070
    74
1070
     0
1000
MTEXTEND
  0
LINE
  5
7862
330
77A5
100
AcDbEntity
  8
标注
370
    -2
100
AcDbLine
 10
1112.447344596428
 20
118.9643911009611
 30
0.0
 11
1112.2112966314
 21
118.5551456921842
 31
0.0
  0
SOLID
  5
7863
330
77A5
100
AcDbEntity
  8
标注
100
AcDbTrace
 10
1111.792691727028
 20
118.0462193270319
 30
0.0
 11
1111.980376218665
 21
117.9379651075142
 31
0.0
 12
1112.2112966314
 22
118.5551456921842
 32
0.0
 13
1112.2112966314
 23
118.5551456921842
 33
0.0
  0
POINT
  5
7864
330
77A5
100
AcDbEntity
  8
DEFPOINTS
 62
     0
100
AcDbPoint
 10
1112.2112966314
 20
118.5551456921842
 30
0.0
  0
POINT
  5
7865
330
77A5
100
AcDbEntity
  8
DEFPOINTS
 62
     0
100
AcDbPoint
 10
1112.447344596428
 20
118.9643911009611
 30
0.0
  0
ENDBLK
  5
77A7
330
77A5
100
AcDbEntity
  8
0
100
AcDbBlockEnd
  0
BLOCK
  5
77B0
330
77AF
100
AcDbEntity
  8
0
100
AcDbBlockBegin
  2
*D294
 70
     1
 10
0.0
 20
0.0
 30
0.0
  3
*D294
  1

  0
LINE
  5
7866
330
77AF
100
AcDbEntity
  8
标注
370
    -2
100
AcDbLine
 10
1109.435205492657
 20
122.075940857151
 30
0.0
 11
1109.654823695732
 21
122.6877151986184
 31
0.0
  0
MTEXT
  5
7867
330
77AF
100
AcDbEntity
  8
标注
100
AcDbMText
 10
1109.07288571938
 20
122.8917439178633
 30
0.0
 40
0.65
 41
0.0
 71
     5
 72
     1
  1
\A1;R1/2"
 11
0.3378741585777782
 21
0.9411912945652218
 31
0.0
 73
     1
 44
1.0
1001
ACAD
1000
MTEXTBEGIN
1070
    73
1070
     1
1070
    44
1040
1.0
1070
    74
1070
     0
1000
MTEXTEND
  0
LINE
  5
7868
330
77AF
100
AcDbEntity
  8
标注
370
    -2
100
AcDbLine
 10
1109.055961702852
 20
121.0195092111667
 30
0.0
 11
1109.215587289581
 21
121.4641665156836
 31
0.0
  0
SOLID
  5
7869
330
77AF
100
AcDbEntity
  8
标注
100
AcDbTrace
 10
1109.333243102412
 20
122.1125438909969
 30
0.0
 11
1109.537167882901
 21
122.0393378233051
 31
0.0
 12
1109.215587289581
 22
121.4641665156836
 32
0.0
 13
1109.215587289581
 23
121.4641665156836
 33
0.0
  0
POINT
  5
786A
330
77AF
100
AcDbEntity
  8
DEFPOINTS
 62
     0
100
AcDbPoint
 10
1109.215587289581
 20
121.4641665156836
 30
0.0
  0
POINT
  5
786B
330
77AF
100
AcDbEntity
  8
DEFPOINTS
 62
     0
100
AcDbPoint
 10
1109.055961702852
 20
121.0195092111667
 30
0.0
  0
ENDBLK
  5
77B1
330
77AF
100
AcDbEntity
  8
0
100
AcDbBlockEnd
  0
BLOCK
  5
7956
330
7955
100
AcDbEntity
  8
0
100
AcDbBlockBegin
  2
*D295
 70
     1
 10
0.0
 20
0.0
 30
0.0
  3
*D295
  1

  0
LINE
  5
7AE8
330
7955
100
AcDbEntity
  8
标注
370
    -2
100
AcDbLine
 10
1135.362178664015
 20
138.162998433621
 30
0.0
 11
1135.362178664015
 21
135.1913252291895
 31
0.0
  0
LINE
  5
7AE9
330
7955
100
AcDbEntity
  8
标注
370
    -2
100
AcDbLine
 10
1117.362178664093
 20
138.162998433621
 30
0.0
 11
1117.362178664093
 21
135.1913252291895
 31
0.0
  0
LINE
  5
7AEA
330
7955
100
AcDbEntity
  8
标注
370
    -2
100
AcDbLine
 10
1134.712178664015
 20
135.5113252291895
 30
0.0
 11
1127.257642511257
 21
135.5113252291895
 31
0.0
  0
LINE
  5
7AEB
330
7955
100
AcDbEntity
  8
标注
370
    -2
100
AcDbLine
 10
1118.012178664093
 20
135.5113252291895
 30
0.0
 11
1125.46671481685
 21
135.5113252291895
 31
0.0
  0
SOLID
  5
7AEC
330
7955
100
AcDbEntity
  8
标注
100
AcDbTrace
 10
1134.712178664015
 20
135.6196585625228
 30
0.0
 11
1134.712178664015
 21
135.4029918958562
 31
0.0
 12
1135.362178664015
 22
135.5113252291895
 32
0.0
 13
1135.362178664015
 23
135.5113252291895
 33
0.0
  0
SOLID
  5
7AED
330
7955
100
AcDbEntity
  8
标注
100
AcDbTrace
 10
1118.012178664093
 20
135.6196585625228
 30
0.0
 11
1118.012178664093
 21
135.4029918958562
 31
0.0
 12
1117.362178664093
 22
135.5113252291895
 32
0.0
 13
1117.362178664093
 23
135.5113252291895
 33
0.0
  0
MTEXT
  5
7AEE
330
7955
100
AcDbEntity
  8
标注
100
AcDbMText
 10
1126.362178664054
 20
135.5113252291895
 30
0.0
 40
0.65
 41
0.0
 71
     5
 72
     1
  1
\A1;18"
 73
     1
 44
1.0
1001
ACAD
1000
MTEXTBEGIN
1070
    73
1070
     1
1070
    44
1040
1.0
1070
    74
1070
     0
1000
MTEXTEND
  0
POINT
  5
7AEF
330
7955
100
AcDbEntity
  8
DEFPOINTS
 62
     0
100
AcDbPoint
 10
1135.362178664015
 20
139.0429984336211
 30
0.0
  0
POINT
  5
7AF0
330
7955
100
AcDbEntity
  8
DEFPOINTS
 62
     0
100
AcDbPoint
 10
1117.362178664093
 20
139.0429984336211
 30
0.0
  0
POINT
  5
7AF1
330
7955
100
AcDbEntity
  8
DEFPOINTS
 62
     0
100
AcDbPoint
 10
1117.362178664093
 20
135.5113252291895
 30
0.0
  0
ENDBLK
  5
7957
330
7955
100
AcDbEntity
  8
0
100
AcDbBlockEnd
  0
BLOCK
  5
7963
330
7962
100
AcDbEntity
  8
0
100
AcDbBlockBegin
  2
*D296
 70
     1
 10
0.0
 20
0.0
 30
0.0
  3
*D296
  1

  0
LINE
  5
7AF2
330
7962
100
AcDbEntity
  8
标注
370
    -2
100
AcDbLine
 10
1116.362178664083
 20
138.162998433621
 30
0.0
 11
1116.362178664083
 21
135.1913252291895
 31
0.0
  0
LINE
  5
7AF3
330
7962
100
AcDbEntity
  8
标注
370
    -2
100
AcDbLine
 10
1105.362178664131
 20
138.162998433621
 30
0.0
 11
1105.362178664131
 21
135.1913252291895
 31
0.0
  0
LINE
  5
7AF4
330
7962
100
AcDbEntity
  8
标注
370
    -2
100
AcDbLine
 10
1115.712178664083
 20
135.5113252291895
 30
0.0
 11
1111.75764251131
 21
135.5113252291895
 31
0.0
  0
LINE
  5
7AF5
330
7962
100
AcDbEntity
  8
标注
370
    -2
100
AcDbLine
 10
1106.012178664131
 20
135.5113252291895
 30
0.0
 11
1109.966714816904
 21
135.5113252291895
 31
0.0
  0
SOLID
  5
7AF6
330
7962
100
AcDbEntity
  8
标注
100
AcDbTrace
 10
1115.712178664083
 20
135.6196585625228
 30
0.0
 11
1115.712178664083
 21
135.4029918958562
 31
0.0
 12
1116.362178664083
 22
135.5113252291895
 32
0.0
 13
1116.362178664083
 23
135.5113252291895
 33
0.0
  0
SOLID
  5
7AF7
330
7962
100
AcDbEntity
  8
标注
100
AcDbTrace
 10
1106.012178664131
 20
135.6196585625228
 30
0.0
 11
1106.012178664131
 21
135.4029918958562
 31
0.0
 12
1105.362178664131
 22
135.5113252291895
 32
0.0
 13
1105.362178664131
 23
135.5113252291895
 33
0.0
  0
MTEXT
  5
7AF8
330
7962
100
AcDbEntity
  8
标注
100
AcDbMText
 10
1110.862178664107
 20
135.5113252291895
 30
0.0
 40
0.65
 41
0.0
 71
     5
 72
     1
  1
\A1;11"
 73
     1
 44
1.0
1001
ACAD
1000
MTEXTBEGIN
1070
    73
1070
     1
1070
    44
1040
1.0
1070
    74
1070
     0
1000
MTEXTEND
  0
POINT
  5
7AF9
330
7962
100
AcDbEntity
  8
DEFPOINTS
 62
     0
100
AcDbPoint
 10
1116.362178664083
 20
139.0429984336211
 30
0.0
  0
POINT
  5
7AFA
330
7962
100
AcDbEntity
  8
DEFPOINTS
 62
     0
100
AcDbPoint
 10
1105.362178664131
 20
139.0429984336211
 30
0.0
  0
POINT
  5
7AFB
330
7962
100
AcDbEntity
  8
DEFPOINTS
 62
     0
100
AcDbPoint
 10
1105.362178664131
 20
135.5113252291895
 30
0.0
  0
ENDBLK
  5
7964
330
7962
100
AcDbEntity
  8
0
100
AcDbBlockEnd
  0
BLOCK
  5
7970
330
796F
100
AcDbEntity
  8
0
100
AcDbBlockBegin
  2
*D297
 70
     1
 10
0.0
 20
0.0
 30
0.0
  3
*D297
  1

  0
LINE
  5
7AFC
330
796F
100
AcDbEntity
  8
标注
370
    -2
100
AcDbLine
 10
1135.848477876596
 20
138.6492976462309
 30
0.0
 11
1138.852883299497
 21
138.6492976462309
 31
0.0
  0
LINE
  5
7AFD
330
796F
100
AcDbEntity
  8
标注
370
    -2
100
AcDbLine
 10
1135.848477876596
 20
156.6492976461727
 30
0.0
 11
1138.852883299497
 21
156.6492976461727
 31
0.0
  0
LINE
  5
7AFE
330
796F
100
AcDbEntity
  8
标注
370
    -2
100
AcDbLine
 10
1138.532883299497
 20
139.2992976462309
 30
0.0
 11
1138.532883299497
 21
146.7538337989986
 31
0.0
  0
LINE
  5
7AFF
330
796F
100
AcDbEntity
  8
标注
370
    -2
100
AcDbLine
 10
1138.532883299497
 20
155.9992976461727
 30
0.0
 11
1138.532883299497
 21
148.5447614934051
 31
0.0
  0
SOLID
  5
7B00
330
796F
100
AcDbEntity
  8
标注
100
AcDbTrace
 10
1138.424549966164
 20
139.2992976462309
 30
0.0
 11
1138.641216632831
 21
139.2992976462309
 31
0.0
 12
1138.532883299497
 22
138.6492976462309
 32
0.0
 13
1138.532883299497
 23
138.6492976462309
 33
0.0
  0
SOLID
  5
7B01
330
796F
100
AcDbEntity
  8
标注
100
AcDbTrace
 10
1138.424549966164
 20
155.9992976461727
 30
0.0
 11
1138.641216632831
 21
155.9992976461727
 31
0.0
 12
1138.532883299497
 22
156.6492976461727
 32
0.0
 13
1138.532883299497
 23
156.6492976461727
 33
0.0
  0
MTEXT
  5
7B02
330
796F
100
AcDbEntity
  8
标注
100
AcDbMText
 10
1138.532883299497
 20
147.649297646202
 30
0.0
 40
0.65
 41
0.0
 71
     5
 72
     1
  1
\A1;18"
 11
0.0000000000000001
 21
1.0
 31
0.0
 73
     1
 44
1.0
1001
ACAD
1000
MTEXTBEGIN
1070
    73
1070
     1
1070
    44
1040
1.0
1070
    74
1070
     0
1000
MTEXTEND
  0
POINT
  5
7B03
330
796F
100
AcDbEntity
  8
DEFPOINTS
 62
     0
100
AcDbPoint
 10
1134.968477876596
 20
138.6492976462309
 30
0.0
  0
POINT
  5
7B04
330
796F
100
AcDbEntity
  8
DEFPOINTS
 62
     0
100
AcDbPoint
 10
1134.968477876596
 20
156.6492976461727
 30
0.0
  0
POINT
  5
7B05
330
796F
100
AcDbEntity
  8
DEFPOINTS
 62
     0
100
AcDbPoint
 10
1138.532883299497
 20
156.6492976461727
 30
0.0
  0
ENDBLK
  5
7971
330
796F
100
AcDbEntity
  8
0
100
AcDbBlockEnd
  0
BLOCK
  5
797D
330
797C
100
AcDbEntity
  8
0
100
AcDbBlockBegin
  2
*D298
 70
     1
 10
0.0
 20
0.0
 30
0.0
  3
*D298
  1

  0
LINE
  5
7B06
330
797C
100
AcDbEntity
  8
标注
370
    -2
100
AcDbLine
 10
1136.242178664015
 20
137.6492976462309
 30
0.0
 11
1140.952116510427
 21
137.6492976462309
 31
0.0
  0
LINE
  5
7B07
330
797C
100
AcDbEntity
  8
标注
370
    -2
100
AcDbLine
 10
1136.242178664129
 20
157.6492976461445
 30
0.0
 11
1140.952116510427
 21
157.6492976461445
 31
0.0
  0
LINE
  5
7B08
330
797C
100
AcDbEntity
  8
标注
370
    -2
100
AcDbLine
 10
1140.632116510427
 20
138.2992976462309
 30
0.0
 11
1140.632116510427
 21
146.7176980554646
 31
0.0
  0
LINE
  5
7B09
330
797C
100
AcDbEntity
  8
标注
370
    -2
100
AcDbLine
 10
1140.632116510427
 20
156.9992976461445
 30
0.0
 11
1140.632116510427
 21
148.5808972369108
 31
0.0
  0
SOLID
  5
7B0A
330
797C
100
AcDbEntity
  8
标注
100
AcDbTrace
 10
1140.523783177094
 20
138.2992976462309
 30
0.0
 11
1140.740449843761
 21
138.2992976462309
 31
0.0
 12
1140.632116510427
 22
137.6492976462309
 32
0.0
 13
1140.632116510427
 23
137.6492976462309
 33
0.0
  0
SOLID
  5
7B0B
330
797C
100
AcDbEntity
  8
标注
100
AcDbTrace
 10
1140.523783177094
 20
156.9992976461445
 30
0.0
 11
1140.740449843761
 21
156.9992976461445
 31
0.0
 12
1140.632116510427
 22
157.6492976461445
 32
0.0
 13
1140.632116510427
 23
157.6492976461445
 33
0.0
  0
MTEXT
  5
7B0C
330
797C
100
AcDbEntity
  8
标注
100
AcDbMText
 10
1140.632116510427
 20
147.6492976461879
 30
0.0
 40
0.65
 41
0.0
 71
     5
 72
     1
  1
\A1;20"
 11
0.0000000000000001
 21
1.0
 31
0.0
 73
     1
 44
1.0
1001
ACAD
1000
MTEXTBEGIN
1070
    73
1070
     1
1070
    44
1040
1.0
1070
    74
1070
     0
1000
MTEXTEND
  0
POINT
  5
7B0D
330
797C
100
AcDbEntity
  8
DEFPOINTS
 62
     0
100
AcDbPoint
 10
1135.362178664015
 20
137.6492976462309
 30
0.0
  0
POINT
  5
7B0E
330
797C
100
AcDbEntity
  8
DEFPOINTS
 62
     0
100
AcDbPoint
 10
1135.362178664128
 20
157.6492976461445
 30
0.0
  0
POINT
  5
7B0F
330
797C
100
AcDbEntity
  8
DEFPOINTS
 62
     0
100
AcDbPoint
 10
1140.632116510427
 20
157.6492976461445
 30
0.0
  0
ENDBLK
  5
797E
330
797C
100
AcDbEntity
  8
0
100
AcDbBlockEnd
  0
BLOCK
  5
798A
330
7989
100
AcDbEntity
  8
0
100
AcDbBlockBegin
  2
*D299
 70
     1
 10
0.0
 20
0.0
 30
0.0
  3
*D299
  1

  0
LINE
  5
7B10
330
7989
100
AcDbEntity
  8
标注
370
    -2
100
AcDbLine
 10
1104.875879451521
 20
138.6492976462309
 30
0.0
 11
1102.35095112321
 21
138.6492976462309
 31
0.0
  0
LINE
  5
7B11
330
7989
100
AcDbEntity
  8
标注
370
    -2
100
AcDbLine
 10
1104.875879451521
 20
153.6492976461727
 30
0.0
 11
1102.35095112321
 21
153.6492976461727
 31
0.0
  0
LINE
  5
7B12
330
7989
100
AcDbEntity
  8
标注
370
    -2
100
AcDbLine
 10
1102.67095112321
 20
139.2992976462309
 30
0.0
 11
1102.67095112321
 21
145.2538337989986
 31
0.0
  0
LINE
  5
7B13
330
7989
100
AcDbEntity
  8
标注
370
    -2
100
AcDbLine
 10
1102.67095112321
 20
152.9992976461727
 30
0.0
 11
1102.67095112321
 21
147.0447614934051
 31
0.0
  0
SOLID
  5
7B14
330
7989
100
AcDbEntity
  8
标注
100
AcDbTrace
 10
1102.562617789876
 20
139.2992976462309
 30
0.0
 11
1102.779284456543
 21
139.2992976462309
 31
0.0
 12
1102.67095112321
 22
138.6492976462309
 32
0.0
 13
1102.67095112321
 23
138.6492976462309
 33
0.0
  0
SOLID
  5
7B15
330
7989
100
AcDbEntity
  8
标注
100
AcDbTrace
 10
1102.562617789876
 20
152.9992976461727
 30
0.0
 11
1102.779284456543
 21
152.9992976461727
 31
0.0
 12
1102.67095112321
 22
153.6492976461727
 32
0.0
 13
1102.67095112321
 23
153.6492976461727
 33
0.0
  0
MTEXT
  5
7B16
330
7989
100
AcDbEntity
  8
标注
100
AcDbMText
 10
1102.67095112321
 20
146.149297646202
 30
0.0
 40
0.65
 41
0.0
 71
     5
 72
     1
  1
\A1;15"
 11
0.0000000000000001
 21
1.0
 31
0.0
 73
     1
 44
1.0
1001
ACAD
1000
MTEXTBEGIN
1070
    73
1070
     1
1070
    44
1040
1.0
1070
    74
1070
     0
1000
MTEXTEND
  0
POINT
  5
7B17
330
7989
100
AcDbEntity
  8
DEFPOINTS
 62
     0
100
AcDbPoint
 10
1105.755879451521
 20
138.6492976462309
 30
0.0
  0
POINT
  5
7B18
330
7989
100
AcDbEntity
  8
DEFPOINTS
 62
     0
100
AcDbPoint
 10
1105.755879451521
 20
153.6492976461727
 30
0.0
  0
POINT
  5
7B19
330
7989
100
AcDbEntity
  8
DEFPOINTS
 62
     0
100
AcDbPoint
 10
1102.67095112321
 20
153.6492976461727
 30
0.0
  0
ENDBLK
  5
798B
330
7989
100
AcDbEntity
  8
0
100
AcDbBlockEnd
  0
BLOCK
  5
7997
330
7996
100
AcDbEntity
  8
0
100
AcDbBlockBegin
  2
*D300
 70
     1
 10
0.0
 20
0.0
 30
0.0
  3
*D300
  1

  0
LINE
  5
7B1A
330
7996
100
AcDbEntity
  8
标注
370
    -2
100
AcDbLine
 10
1104.482178664131
 20
137.6492976462309
 30
0.0
 11
1100.633971780867
 21
137.6492976462309
 31
0.0
  0
LINE
  5
7B1B
330
7996
100
AcDbEntity
  8
标注
370
    -2
100
AcDbLine
 10
1104.482178664131
 20
154.6492976461727
 30
0.0
 11
1100.633971780867
 21
154.6492976461727
 31
0.0
  0
LINE
  5
7B1C
330
7996
100
AcDbEntity
  8
标注
370
    -2
100
AcDbLine
 10
1100.953971780866
 20
138.2992976462309
 30
0.0
 11
1100.953971780866
 21
145.2538337989986
 31
0.0
  0
LINE
  5
7B1D
330
7996
100
AcDbEntity
  8
标注
370
    -2
100
AcDbLine
 10
1100.953971780866
 20
153.9992976461727
 30
0.0
 11
1100.953971780866
 21
147.0447614934051
 31
0.0
  0
SOLID
  5
7B1E
330
7996
100
AcDbEntity
  8
标注
100
AcDbTrace
 10
1100.845638447533
 20
138.2992976462309
 30
0.0
 11
1101.0623051142
 21
138.2992976462309
 31
0.0
 12
1100.953971780866
 22
137.6492976462309
 32
0.0
 13
1100.953971780866
 23
137.6492976462309
 33
0.0
  0
SOLID
  5
7B1F
330
7996
100
AcDbEntity
  8
标注
100
AcDbTrace
 10
1100.845638447533
 20
153.9992976461727
 30
0.0
 11
1101.0623051142
 21
153.9992976461727
 31
0.0
 12
1100.953971780866
 22
154.6492976461727
 32
0.0
 13
1100.953971780866
 23
154.6492976461727
 33
0.0
  0
MTEXT
  5
7B20
330
7996
100
AcDbEntity
  8
标注
100
AcDbMText
 10
1100.953971780866
 20
146.149297646202
 30
0.0
 40
0.65
 41
0.0
 71
     5
 72
     1
  1
\A1;17"
 11
0.0000000000000001
 21
1.0
 31
0.0
 73
     1
 44
1.0
1001
ACAD
1000
MTEXTBEGIN
1070
    73
1070
     1
1070
    44
1040
1.0
1070
    74
1070
     0
1000
MTEXTEND
  0
POINT
  5
7B21
330
7996
100
AcDbEntity
  8
DEFPOINTS
 62
     0
100
AcDbPoint
 10
1105.362178664131
 20
137.6492976462309
 30
0.0
  0
POINT
  5
7B22
330
7996
100
AcDbEntity
  8
DEFPOINTS
 62
     0
100
AcDbPoint
 10
1105.362178664131
 20
154.6492976461727
 30
0.0
  0
POINT
  5
7B23
330
7996
100
AcDbEntity
  8
DEFPOINTS
 62
     0
100
AcDbPoint
 10
1100.953971780866
 20
154.6492976461727
 30
0.0
  0
ENDBLK
  5
7998
330
7996
100
AcDbEntity
  8
0
100
AcDbBlockEnd
  0
BLOCK
  5
79A4
330
79A3
100
AcDbEntity
  8
0
100
AcDbBlockBegin
  2
*D301
 70
     1
 10
0.0
 20
0.0
 30
0.0
  3
*D301
  1

  0
LINE
  5
7B24
330
79A3
100
AcDbEntity
  8
标注
370
    -2
100
AcDbLine
 10
1136.362178664015
 20
137.7692976462309
 30
0.0
 11
1136.362178664015
 21
133.3930756036228
 31
0.0
  0
LINE
  5
7B25
330
79A3
100
AcDbEntity
  8
标注
370
    -2
100
AcDbLine
 10
1104.362178664131
 20
137.7692976462309
 30
0.0
 11
1104.362178664131
 21
133.3930756036228
 31
0.0
  0
LINE
  5
7B26
330
79A3
100
AcDbEntity
  8
标注
370
    -2
100
AcDbLine
 10
1135.712178664015
 20
133.7130756036228
 30
0.0
 11
1121.288014271167
 21
133.7130756036228
 31
0.0
  0
LINE
  5
7B27
330
79A3
100
AcDbEntity
  8
标注
370
    -2
100
AcDbLine
 10
1105.012178664131
 20
133.7130756036228
 30
0.0
 11
1119.436343056979
 21
133.7130756036228
 31
0.0
  0
SOLID
  5
7B28
330
79A3
100
AcDbEntity
  8
标注
100
AcDbTrace
 10
1135.712178664015
 20
133.8214089369561
 30
0.0
 11
1135.712178664015
 21
133.6047422702895
 31
0.0
 12
1136.362178664015
 22
133.7130756036228
 32
0.0
 13
1136.362178664015
 23
133.7130756036228
 33
0.0
  0
SOLID
  5
7B29
330
79A3
100
AcDbEntity
  8
标注
100
AcDbTrace
 10
1105.012178664131
 20
133.8214089369561
 30
0.0
 11
1105.012178664131
 21
133.6047422702895
 31
0.0
 12
1104.362178664131
 22
133.7130756036228
 32
0.0
 13
1104.362178664131
 23
133.7130756036228
 33
0.0
  0
MTEXT
  5
7B2A
330
79A3
100
AcDbEntity
  8
标注
100
AcDbMText
 10
1120.362178664073
 20
133.7130756036228
 30
0.0
 40
0.65
 41
0.0
 71
     5
 72
     1
  1
\A1;32"
 73
     1
 44
1.0
1001
ACAD
1000
MTEXTBEGIN
1070
    73
1070
     1
1070
    44
1040
1.0
1070
    74
1070
     0
1000
MTEXTEND
  0
POINT
  5
7B2B
330
79A3
100
AcDbEntity
  8
DEFPOINTS
 62
     0
100
AcDbPoint
 10
1136.362178664015
 20
138.6492976462309
 30
0.0
  0
POINT
  5
7B2C
330
79A3
100
AcDbEntity
  8
DEFPOINTS
 62
     0
100
AcDbPoint
 10
1104.362178664131
 20
138.6492976462309
 30
0.0
  0
POINT
  5
7B2D
330
79A3
100
AcDbEntity
  8
DEFPOINTS
 62
     0
100
AcDbPoint
 10
1104.362178664131
 20
133.7130756036228
 30
0.0
  0
ENDBLK
  5
79A5
330
79A3
100
AcDbEntity
  8
0
100
AcDbBlockEnd
  0
BLOCK
  5
79B1
330
79B0
100
AcDbEntity
  8
0
100
AcDbBlockBegin
  2
*D302
 70
     1
 10
0.0
 20
0.0
 30
0.0
  3
*D302
  1

  0
LINE
  5
7B2E
330
79B0
100
AcDbEntity
  8
标注
370
    -2
100
AcDbLine
 10
1135.704951636844
 20
156.9951357246205
 30
0.0
 11
1136.16361560445
 21
157.4557085905383
 31
0.0
  0
MTEXT
  5
7B2F
330
79B0
100
AcDbEntity
  8
标注
100
AcDbMText
 10
1135.980962583455
 20
158.3447249952713
 30
0.0
 40
0.65
 41
0.0
 71
     5
 72
     1
  1
\A1;5-R3/8"
 11
0.7056368732402606
 21
0.7085736398735904
 31
0.0
 73
     1
 44
1.0
1001
ACAD
1000
MTEXTBEGIN
1070
    73
1070
     1
1070
    44
1040
1.0
1070
    74
1070
     0
1000
MTEXTEND
  0
LINE
  5
7B30
330
79B0
100
AcDbEntity
  8
标注
370
    -2
100
AcDbLine
 10
1134.968477876624
 20
156.2555968587533
 30
0.0
 11
1135.246287669238
 21
156.5345628587027
 31
0.0
  0
SOLID
  5
7B31
330
79B0
100
AcDbEntity
  8
标注
100
AcDbTrace
 10
1135.628189492524
 20
157.0715797192215
 30
0.0
 11
1135.781713781164
 21
156.9186917300195
 31
0.0
 12
1135.246287669238
 22
156.5345628587027
 32
0.0
 13
1135.246287669238
 23
156.5345628587027
 33
0.0
  0
ARC
  5
7B32
330
79B0
100
AcDbEntity
  8
标注
370
    -2
100
AcDbCircle
 10
1134.968477876624
 20
156.2555968587533
 30
0.0
 40
0.3937007874004621
100
AcDbArc
 50
358.5489713484017
 51
89.99999999999998
  0
POINT
  5
7B33
330
79B0
100
AcDbEntity
  8
DEFPOINTS
 62
     0
100
AcDbPoint
 10
1135.246287669238
 20
156.5345628587027
 30
0.0
  0
POINT
  5
7B34
330
79B0
100
AcDbEntity
  8
DEFPOINTS
 62
     0
100
AcDbPoint
 10
1134.968477876624
 20
156.2555968587533
 30
0.0
  0
ENDBLK
  5
79B2
330
79B0
100
AcDbEntity
  8
0
100
AcDbBlockEnd
  0
BLOCK
  5
79BA
330
79B9
100
AcDbEntity
  8
0
100
AcDbBlockBegin
  2
*D303
 70
     1
 10
0.0
 20
0.0
 30
0.0
  3
*D303
  1

  0
LINE
  5
7B35
330
79B9
100
AcDbEntity
  8
标注
370
    -2
100
AcDbLine
 10
1105.289633482125
 20
154.1893666535611
 30
0.0
 11
1104.999263019856
 21
154.7709034061761
 31
0.0
  0
MTEXT
  5
7B36
330
79B9
100
AcDbEntity
  8
标注
100
AcDbMText
 10
1105.050572845461
 20
155.8799004967973
 30
0.0
 40
0.65
 41
0.0
 71
     5
 72
     1
  1
\A1;4-R3/8"
 11
0.4467237881056182
 21
-0.894671927099854
 31
0.0
 73
     1
 44
1.0
1001
ACAD
1000
MTEXTBEGIN
1070
    73
1070
     1
1070
    44
1040
1.0
1070
    74
1070
     0
1000
MTEXTEND
  0
LINE
  5
7B37
330
79B9
100
AcDbEntity
  8
标注
370
    -2
100
AcDbLine
 10
1105.755879451521
 20
153.2555968587827
 30
0.0
 11
1105.580003944394
 21
153.6078299009463
 31
0.0
  0
SOLID
  5
7B38
330
79B9
100
AcDbEntity
  8
标注
100
AcDbTrace
 10
1105.386556274228
 20
154.2377617306059
 30
0.0
 11
1105.192710690023
 21
154.1409715765163
 31
0.0
 12
1105.580003944394
 22
153.6078299009463
 32
0.0
 13
1105.580003944394
 23
153.6078299009463
 33
0.0
  0
ARC
  5
7B39
330
79B9
100
AcDbEntity
  8
标注
370
    -2
100
AcDbCircle
 10
1105.755879451521
 20
153.2555968587827
 30
0.0
 40
0.3937007873996094
100
AcDbArc
 50
90.0
 51
163.1036886682856
  0
POINT
  5
7B3A
330
79B9
100
AcDbEntity
  8
DEFPOINTS
 62
     0
100
AcDbPoint
 10
1105.580003944394
 20
153.6078299009463
 30
0.0
  0
POINT
  5
7B3B
330
79B9
100
AcDbEntity
  8
DEFPOINTS
 62
     0
100
AcDbPoint
 10
1105.755879451521
 20
153.2555968587827
 30
0.0
  0
ENDBLK
  5
79BB
330
79B9
100
AcDbEntity
  8
0
100
AcDbBlockEnd
  0
BLOCK
  5
79C3
330
79C2
100
AcDbEntity
  8
0
100
AcDbBlockBegin
  2
*D304
 70
     1
 10
0.0
 20
0.0
 30
0.0
  3
*D304
  1

  0
LINE
  5
7B3C
330
79C2
100
AcDbEntity
  8
标注
370
    -2
100
AcDbLine
 10
1103.482178664131
 20
180.2520553898191
 30
0.0
 11
1102.876771260836
 21
180.2520553898191
 31
0.0
  0
LINE
  5
7B3D
330
79C2
100
AcDbEntity
  8
标注
370
    -2
100
AcDbLine
 10
1104.371244608824
 20
172.3114609016493
 30
0.0
 11
1102.876771260836
 21
172.3114609016493
 31
0.0
  0
LINE
  5
7B3E
330
79C2
100
AcDbEntity
  8
标注
370
    -2
100
AcDbLine
 10
1103.196771260837
 20
179.6020553898191
 30
0.0
 11
1103.196771260837
 21
176.95575200658
 31
0.0
  0
LINE
  5
7B3F
330
79C2
100
AcDbEntity
  8
标注
370
    -2
100
AcDbLine
 10
1103.196771260837
 20
172.9614609016492
 30
0.0
 11
1103.196771260837
 21
175.6077642848883
 31
0.0
  0
SOLID
  5
7B40
330
79C2
100
AcDbEntity
  8
标注
100
AcDbTrace
 10
1103.088437927503
 20
179.6020553898191
 30
0.0
 11
1103.30510459417
 21
179.6020553898191
 31
0.0
 12
1103.196771260837
 22
180.2520553898191
 32
0.0
 13
1103.196771260837
 23
180.2520553898191
 33
0.0
  0
SOLID
  5
7B41
330
79C2
100
AcDbEntity
  8
标注
100
AcDbTrace
 10
1103.088437927503
 20
172.9614609016492
 30
0.0
 11
1103.30510459417
 21
172.9614609016492
 31
0.0
 12
1103.196771260837
 22
172.3114609016493
 32
0.0
 13
1103.196771260837
 23
172.3114609016493
 33
0.0
  0
MTEXT
  5
7B42
330
79C2
100
AcDbEntity
  8
标注
100
AcDbMText
 10
1103.196771260837
 20
176.2817581457344
 30
0.0
 40
0.65
 41
0.0
 71
     5
 72
     1
  1
\A1;8"
 11
0.0000000000000001
 21
1.0
 31
0.0
 73
     1
 44
1.0
1001
ACAD
1000
MTEXTBEGIN
1070
    73
1070
     1
1070
    44
1040
1.0
1070
    74
1070
     0
1000
MTEXTEND
  0
POINT
  5
7B43
330
79C2
100
AcDbEntity
  8
DEFPOINTS
 62
     0
100
AcDbPoint
 10
1104.362178664131
 20
180.2520553898191
 30
0.0
  0
POINT
  5
7B44
330
79C2
100
AcDbEntity
  8
DEFPOINTS
 62
     0
100
AcDbPoint
 10
1105.251244608824
 20
172.3114609016493
 30
0.0
  0
POINT
  5
7B45
330
79C2
100
AcDbEntity
  8
DEFPOINTS
 62
     0
100
AcDbPoint
 10
1103.196771260837
 20
172.3114609016493
 30
0.0
  0
ENDBLK
  5
79C4
330
79C2
100
AcDbEntity
  8
0
100
AcDbBlockEnd
  0
BLOCK
  5
79D0
330
79CF
100
AcDbEntity
  8
0
100
AcDbBlockBegin
  2
*D305
 70
     1
 10
0.0
 20
0.0
 30
0.0
  3
*D305
  1

  0
LINE
  5
7B46
330
79CF
100
AcDbEntity
  8
标注
370
    -2
100
AcDbLine
 10
1137.242178664015
 20
180.2520553898191
 30
0.0
 11
1139.283592496251
 21
180.2520553898191
 31
0.0
  0
LINE
  5
7B47
330
79CF
100
AcDbEntity
  8
标注
370
    -2
100
AcDbLine
 10
1137.104630280816
 20
170.1897237893847
 30
0.0
 11
1139.283592496251
 21
170.1897237893847
 31
0.0
  0
LINE
  5
7B48
330
79CF
100
AcDbEntity
  8
标注
370
    -2
100
AcDbLine
 10
1138.963592496251
 20
179.6020553898191
 30
0.0
 11
1138.963592496251
 21
176.1163534368052
 31
0.0
  0
LINE
  5
7B49
330
79CF
100
AcDbEntity
  8
标注
370
    -2
100
AcDbLine
 10
1138.963592496251
 20
170.8397237893848
 30
0.0
 11
1138.963592496251
 21
174.3254257423986
 31
0.0
  0
SOLID
  5
7B4A
330
79CF
100
AcDbEntity
  8
标注
100
AcDbTrace
 10
1138.855259162918
 20
179.6020553898191
 30
0.0
 11
1139.071925829584
 21
179.6020553898191
 31
0.0
 12
1138.963592496251
 22
180.2520553898191
 32
0.0
 13
1138.963592496251
 23
180.2520553898191
 33
0.0
  0
SOLID
  5
7B4B
330
79CF
100
AcDbEntity
  8
标注
100
AcDbTrace
 10
1138.855259162918
 20
170.8397237893848
 30
0.0
 11
1139.071925829584
 21
170.8397237893848
 31
0.0
 12
1138.963592496251
 22
170.1897237893847
 32
0.0
 13
1138.963592496251
 23
170.1897237893847
 33
0.0
  0
MTEXT
  5
7B4C
330
79CF
100
AcDbEntity
  8
标注
100
AcDbMText
 10
1138.963592496251
 20
175.2208895896021
 30
0.0
 40
0.65
 41
0.0
 71
     5
 72
     1
  1
\A1;10"
 11
0.0000000000000001
 21
1.0
 31
0.0
 73
     1
 44
1.0
1001
ACAD
1000
MTEXTBEGIN
1070
    73
1070
     1
1070
    44
1040
1.0
1070
    74
1070
     0
1000
MTEXTEND
  0
POINT
  5
7B4D
330
79CF
100
AcDbEntity
  8
DEFPOINTS
 62
     0
100
AcDbPoint
 10
1136.362178664015
 20
180.2520553898191
 30
0.0
  0
POINT
  5
7B4E
330
79CF
100
AcDbEntity
  8
DEFPOINTS
 62
     0
100
AcDbPoint
 10
1136.224630280816
 20
170.1897237893847
 30
0.0
  0
POINT
  5
7B4F
330
79CF
100
AcDbEntity
  8
DEFPOINTS
 62
     0
100
AcDbPoint
 10
1138.963592496251
 20
170.1897237893847
 30
0.0
  0
ENDBLK
  5
79D1
330
79CF
100
AcDbEntity
  8
0
100
AcDbBlockEnd
  0
BLOCK
  5
79DD
330
79DC
100
AcDbEntity
  8
0
100
AcDbBlockBegin
  2
*D306
 70
     1
 10
0.0
 20
0.0
 30
0.0
  3
*D306
  1

  0
LINE
  5
7B50
330
79DC
100
AcDbEntity
  8
标注
370
    -2
100
AcDbLine
 10
1135.7789757872
 20
170.0507709463767
 30
0.0
 11
1136.28374080054
 21
169.6412440470058
 31
0.0
  0
MTEXT
  5
7B51
330
79DC
100
AcDbEntity
  8
标注
100
AcDbMText
 10
1134.38270481726
 20
171.6841163083834
 30
0.0
 40
0.65
 41
0.0
 71
     5
 72
     1
  1
\A1;R3/8"
 11
0.7765615589838497
 21
-0.6300413836475926
 31
0.0
 73
     1
 44
1.0
1001
ACAD
1000
MTEXTBEGIN
1070
    73
1070
     1
1070
    44
1040
1.0
1070
    74
1070
     0
1000
MTEXTEND
  0
LINE
  5
7B52
330
79DC
100
AcDbEntity
  8
标注
370
    -2
100
AcDbLine
 10
1134.968477876624
 20
170.7083456345844
 30
0.0
 11
1135.274210773861
 21
170.4602978457477
 31
0.0
  0
SOLID
  5
7B53
330
79DC
100
AcDbEntity
  8
标注
100
AcDbTrace
 10
1135.847230270429
 20
170.1348984485999
 30
0.0
 11
1135.710721303972
 21
169.9666434441535
 31
0.0
 12
1135.274210773861
 22
170.4602978457477
 32
0.0
 13
1135.274210773861
 23
170.4602978457477
 33
0.0
  0
ARC
  5
7B54
330
79DC
100
AcDbEntity
  8
标注
370
    -2
100
AcDbCircle
 10
1134.968477876624
 20
170.7083456345844
 30
0.0
 40
0.393700787400121
100
AcDbArc
 50
268.8525960680906
 51
7.516833775809833
  0
POINT
  5
7B55
330
79DC
100
AcDbEntity
  8
DEFPOINTS
 62
     0
100
AcDbPoint
 10
1135.274210773861
 20
170.4602978457477
 30
0.0
  0
POINT
  5
7B56
330
79DC
100
AcDbEntity
  8
DEFPOINTS
 62
     0
100
AcDbPoint
 10
1134.968477876624
 20
170.7083456345844
 30
0.0
  0
ENDBLK
  5
79DE
330
79DC
100
AcDbEntity
  8
0
100
AcDbBlockEnd
  0
BLOCK
  5
79E6
330
79E5
100
AcDbEntity
  8
0
100
AcDbBlockBegin
  2
*D307
 70
     1
 10
0.0
 20
0.0
 30
0.0
  3
*D307
  1

  0
LINE
  5
7B57
330
79E5
100
AcDbEntity
  8
标注
370
    -2
100
AcDbLine
 10
1116.708952395035
 20
171.9753720636371
 30
0.0
 11
1117.170107970196
 21
171.5172939747728
 31
0.0
  0
MTEXT
  5
7B58
330
79E5
100
AcDbEntity
  8
标注
100
AcDbMText
 10
1115.430537772169
 20
173.7005345679518
 30
0.0
 40
0.65
 41
0.0
 71
     5
 72
     1
  1
\A1;R3/8"
 11
0.7094701156328545
 21
-0.7047355213297426
 31
0.0
 73
     1
 44
1.0
1001
ACAD
1000
MTEXTBEGIN
1070
    73
1070
     1
1070
    44
1040
1.0
1070
    74
1070
     0
1000
MTEXTEND
  0
LINE
  5
7B59
330
79E5
100
AcDbEntity
  8
标注
370
    -2
100
AcDbLine
 10
1115.968477876712
 20
172.7109050821578
 30
0.0
 11
1116.247796819873
 21
172.4334501525014
 31
0.0
  0
SOLID
  5
7B5A
330
79E5
100
AcDbEntity
  8
标注
100
AcDbTrace
 10
1116.785298743179
 20
172.052231326164
 30
0.0
 11
1116.632606046891
 21
171.8985128011102
 31
0.0
 12
1116.247796819873
 22
172.4334501525014
 32
0.0
 13
1116.247796819873
 23
172.4334501525014
 33
0.0
  0
ARC
  5
7B5B
330
79E5
100
AcDbEntity
  8
标注
370
    -2
100
AcDbCircle
 10
1115.968477876712
 20
172.7109050821578
 30
0.0
 40
0.3937007874002347
100
AcDbArc
 50
267.2870574572279
 51
1.761828409283117
  0
POINT
  5
7B5C
330
79E5
100
AcDbEntity
  8
DEFPOINTS
 62
     0
100
AcDbPoint
 10
1116.247796819873
 20
172.4334501525014
 30
0.0
  0
POINT
  5
7B5D
330
79E5
100
AcDbEntity
  8
DEFPOINTS
 62
     0
100
AcDbPoint
 10
1115.968477876712
 20
172.7109050821578
 30
0.0
  0
ENDBLK
  5
79E7
330
79E5
100
AcDbEntity
  8
0
100
AcDbBlockEnd
  0
BLOCK
  5
79EF
330
79EE
100
AcDbEntity
  8
0
100
AcDbBlockBegin
  2
*D308
 70
     1
 10
0.0
 20
0.0
 30
0.0
  3
*D308
  1

  0
LINE
  5
7B5E
330
79EE
100
AcDbEntity
  8
标注
370
    -2
100
AcDbLine
 10
1135.440918821493
 20
102.9269107860633
 30
0.0
 11
1135.440918821493
 21
100.45367402825
 31
0.0
  0
LINE
  5
7B5F
330
79EE
100
AcDbEntity
  8
标注
370
    -2
100
AcDbLine
 10
1105.283438506653
 20
102.9269107860633
 30
0.0
 11
1105.283438506653
 21
100.45367402825
 31
0.0
  0
LINE
  5
7B60
330
79EE
100
AcDbEntity
  8
标注
370
    -2
100
AcDbLine
 10
1134.790918821493
 20
100.77367402825
 30
0.0
 11
1122.045313043336
 21
100.77367402825
 31
0.0
  0
LINE
  5
7B61
330
79EE
100
AcDbEntity
  8
标注
370
    -2
100
AcDbLine
 10
1105.933438506653
 20
100.77367402825
 30
0.0
 11
1118.67904428481
 21
100.77367402825
 31
0.0
  0
SOLID
  5
7B62
330
79EE
100
AcDbEntity
  8
标注
100
AcDbTrace
 10
1134.790918821493
 20
100.8820073615833
 30
0.0
 11
1134.790918821493
 21
100.6653406949167
 31
0.0
 12
1135.440918821493
 22
100.77367402825
 32
0.0
 13
1135.440918821493
 23
100.77367402825
 33
0.0
  0
SOLID
  5
7B63
330
79EE
100
AcDbEntity
  8
标注
100
AcDbTrace
 10
1105.933438506653
 20
100.8820073615833
 30
0.0
 11
1105.933438506653
 21
100.6653406949167
 31
0.0
 12
1105.283438506653
 22
100.77367402825
 32
0.0
 13
1105.283438506653
 23
100.77367402825
 33
0.0
  0
MTEXT
  5
7B64
330
79EE
100
AcDbEntity
  8
标注
100
AcDbMText
 10
1120.362178664073
 20
100.77367402825
 30
0.0
 40
0.65
 41
0.0
 71
     5
 72
     1
  1
\A1;30 1/8"
 73
     1
 44
1.0
1001
ACAD
1000
MTEXTBEGIN
1070
    73
1070
     1
1070
    44
1040
1.0
1070
    74
1070
     0
1000
MTEXTEND
  0
POINT
  5
7B65
330
79EE
100
AcDbEntity
  8
DEFPOINTS
 62
     0
100
AcDbPoint
 10
1135.440918821493
 20
103.8069107860633
 30
0.0
  0
POINT
  5
7B66
330
79EE
100
AcDbEntity
  8
DEFPOINTS
 62
     0
100
AcDbPoint
 10
1105.283438506653
 20
103.8069107860633
 30
0.0
  0
POINT
  5
7B67
330
79EE
100
AcDbEntity
  8
DEFPOINTS
 62
     0
100
AcDbPoint
 10
1105.283438506653
 20
100.77367402825
 30
0.0
  0
ENDBLK
  5
79F0
330
79EE
100
AcDbEntity
  8
0
100
AcDbBlockEnd
  0
BLOCK
  5
79FC
330
79FB
100
AcDbEntity
  8
0
100
AcDbBlockBegin
  2
*D309
 70
     1
 10
0.0
 20
0.0
 30
0.0
  3
*D309
  1

  0
LINE
  5
7B68
330
79FB
100
AcDbEntity
  8
标注
370
    -2
100
AcDbLine
 10
1104.875879451521
 20
103.3344698411661
 30
0.0
 11
1102.719920498143
 21
103.3344698411661
 31
0.0
  0
LINE
  5
7B69
330
79FB
100
AcDbEntity
  8
标注
370
    -2
100
AcDbLine
 10
1104.875879451521
 20
118.4919501560758
 30
0.0
 11
1102.719920498143
 21
118.4919501560758
 31
0.0
  0
LINE
  5
7B6A
330
79FB
100
AcDbEntity
  8
标注
370
    -2
100
AcDbLine
 10
1103.039920498143
 20
103.9844698411661
 30
0.0
 11
1103.039920498143
 21
109.2604473792485
 31
0.0
  0
LINE
  5
7B6B
330
79FB
100
AcDbEntity
  8
标注
370
    -2
100
AcDbLine
 10
1103.039920498143
 20
117.8419501560758
 30
0.0
 11
1103.039920498143
 21
112.5659726179934
 31
0.0
  0
SOLID
  5
7B6C
330
79FB
100
AcDbEntity
  8
标注
100
AcDbTrace
 10
1102.93158716481
 20
103.9844698411661
 30
0.0
 11
1103.148253831476
 21
103.9844698411661
 31
0.0
 12
1103.039920498143
 22
103.3344698411661
 32
0.0
 13
1103.039920498143
 23
103.3344698411661
 33
0.0
  0
SOLID
  5
7B6D
330
79FB
100
AcDbEntity
  8
标注
100
AcDbTrace
 10
1102.93158716481
 20
117.8419501560758
 30
0.0
 11
1103.148253831476
 21
117.8419501560758
 31
0.0
 12
1103.039920498143
 22
118.4919501560758
 32
0.0
 13
1103.039920498143
 23
118.4919501560758
 33
0.0
  0
MTEXT
  5
7B6E
330
79FB
100
AcDbEntity
  8
标注
100
AcDbMText
 10
1103.039920498143
 20
110.9132099986211
 30
0.0
 40
0.65
 41
0.0
 71
     5
 72
     1
  1
\A1;15 1/8"
 11
0.0000000000000001
 21
1.0
 31
0.0
 73
     1
 44
1.0
1001
ACAD
1000
MTEXTBEGIN
1070
    73
1070
     1
1070
    44
1040
1.0
1070
    74
1070
     0
1000
MTEXTEND
  0
POINT
  5
7B6F
330
79FB
100
AcDbEntity
  8
DEFPOINTS
 62
     0
100
AcDbPoint
 10
1105.755879451521
 20
103.3344698411661
 30
0.0
  0
POINT
  5
7B70
330
79FB
100
AcDbEntity
  8
DEFPOINTS
 62
     0
100
AcDbPoint
 10
1105.755879451521
 20
118.4919501560758
 30
0.0
  0
POINT
  5
7B71
330
79FB
100
AcDbEntity
  8
DEFPOINTS
 62
     0
100
AcDbPoint
 10
1103.039920498143
 20
118.4919501560758
 30
0.0
  0
ENDBLK
  5
79FD
330
79FB
100
AcDbEntity
  8
0
100
AcDbBlockEnd
  0
BLOCK
  5
7A09
330
7A08
100
AcDbEntity
  8
0
100
AcDbBlockBegin
  2
*D310
 70
     1
 10
0.0
 20
0.0
 30
0.0
  3
*D310
  1

  0
LINE
  5
7B72
330
7A08
100
AcDbEntity
  8
标注
370
    -2
100
AcDbLine
 10
1135.848477876625
 20
121.4919501560639
 30
0.0
 11
1138.232526729268
 21
121.4919501560639
 31
0.0
  0
LINE
  5
7B73
330
7A08
100
AcDbEntity
  8
标注
370
    -2
100
AcDbLine
 10
1135.848477876625
 20
103.3344698411661
 30
0.0
 11
1138.232526729268
 21
103.3344698411661
 31
0.0
  0
LINE
  5
7B74
330
7A08
100
AcDbEntity
  8
标注
370
    -2
100
AcDbLine
 10
1137.912526729268
 20
120.8419501560639
 30
0.0
 11
1137.912526729268
 21
114.0659726179874
 31
0.0
  0
LINE
  5
7B75
330
7A08
100
AcDbEntity
  8
标注
370
    -2
100
AcDbLine
 10
1137.912526729268
 20
103.9844698411661
 30
0.0
 11
1137.912526729268
 21
110.7604473792426
 31
0.0
  0
SOLID
  5
7B76
330
7A08
100
AcDbEntity
  8
标注
100
AcDbTrace
 10
1137.804193395934
 20
120.8419501560639
 30
0.0
 11
1138.020860062601
 21
120.8419501560639
 31
0.0
 12
1137.912526729268
 22
121.4919501560639
 32
0.0
 13
1137.912526729268
 23
121.4919501560639
 33
0.0
  0
SOLID
  5
7B77
330
7A08
100
AcDbEntity
  8
标注
100
AcDbTrace
 10
1137.804193395934
 20
103.9844698411661
 30
0.0
 11
1138.020860062601
 21
103.9844698411661
 31
0.0
 12
1137.912526729268
 22
103.3344698411661
 32
0.0
 13
1137.912526729268
 23
103.3344698411661
 33
0.0
  0
MTEXT
  5
7B78
330
7A08
100
AcDbEntity
  8
标注
100
AcDbMText
 10
1137.912526729268
 20
112.4132099986152
 30
0.0
 40
0.65
 41
0.0
 71
     5
 72
     1
  1
\A1;18 1/8"
 11
0.0000000000000001
 21
1.0
 31
0.0
 73
     1
 44
1.0
1001
ACAD
1000
MTEXTBEGIN
1070
    73
1070
     1
1070
    44
1040
1.0
1070
    74
1070
     0
1000
MTEXTEND
  0
POINT
  5
7B79
330
7A08
100
AcDbEntity
  8
DEFPOINTS
 62
     0
100
AcDbPoint
 10
1134.968477876625
 20
121.4919501560639
 30
0.0
  0
POINT
  5
7B7A
330
7A08
100
AcDbEntity
  8
DEFPOINTS
 62
     0
100
AcDbPoint
 10
1134.968477876625
 20
103.3344698411661
 30
0.0
  0
POINT
  5
7B7B
330
7A08
100
AcDbEntity
  8
DEFPOINTS
 62
     0
100
AcDbPoint
 10
1137.912526729268
 20
103.3344698411661
 30
0.0
  0
ENDBLK
  5
7A0A
330
7A08
100
AcDbEntity
  8
0
100
AcDbBlockEnd
  0
BLOCK
  5
7A16
330
7A15
100
AcDbEntity
  8
0
100
AcDbBlockBegin
  2
*D311
 70
     1
 10
0.0
 20
0.0
 30
0.0
  3
*D311
  1

  0
LINE
  5
7B7C
330
7A15
100
AcDbEntity
  8
标注
370
    -2
100
AcDbLine
 10
1135.580822802342
 20
102.8662156352885
 30
0.0
 11
1135.935428720393
 21
102.3214637258071
 31
0.0
  0
MTEXT
  5
7B7D
330
7A15
100
AcDbEntity
  8
标注
100
AcDbMText
 10
1134.573493511251
 20
104.9823665217169
 30
0.0
 40
0.65
 41
0.0
 71
     5
 72
     1
  1
\A1;4-R1/2"
 11
0.5455475662313044
 21
-0.8380798607406699
 31
0.0
 73
     1
 44
1.0
1001
ACAD
1000
MTEXTBEGIN
1070
    73
1070
     1
1070
    44
1040
1.0
1070
    74
1070
     0
1000
MTEXTEND
  0
LINE
  5
7B7E
330
7A15
100
AcDbEntity
  8
标注
370
    -2
100
AcDbLine
 10
1134.968477876625
 20
103.8069107860634
 30
0.0
 11
1135.226216884292
 21
103.4109675447699
 31
0.0
  0
SOLID
  5
7B7F
330
7A15
100
AcDbEntity
  8
标注
100
AcDbTrace
 10
1135.671614787256
 20
102.9253166216302
 30
0.0
 11
1135.490030817429
 21
102.8071146489468
 31
0.0
 12
1135.226216884292
 22
103.4109675447699
 32
0.0
 13
1135.226216884292
 23
103.4109675447699
 33
0.0
  0
ARC
  5
7B80
330
7A15
100
AcDbEntity
  8
标注
370
    -2
100
AcDbCircle
 10
1134.968477876625
 20
103.8069107860634
 30
0.0
 40
0.4724409448801908
100
AcDbArc
 50
270.0000000000001
 51
341.8704316601195
  0
POINT
  5
7B81
330
7A15
100
AcDbEntity
  8
DEFPOINTS
 62
     0
100
AcDbPoint
 10
1135.226216884292
 20
103.4109675447699
 30
0.0
  0
POINT
  5
7B82
330
7A15
100
AcDbEntity
  8
DEFPOINTS
 62
     0
100
AcDbPoint
 10
1134.968477876625
 20
103.8069107860634
 30
0.0
  0
ENDBLK
  5
7A17
330
7A15
100
AcDbEntity
  8
0
100
AcDbBlockEnd
  0
BLOCK
  5
7A1F
330
7A1E
100
AcDbEntity
  8
0
100
AcDbBlockBegin
  2
*D312
 70
     1
 10
0.0
 20
0.0
 30
0.0
  3
*D312
  1

  0
LINE
  5
7B83
330
7A1E
100
AcDbEntity
  8
标注
370
    -2
100
AcDbLine
 10
1117.694682599577
 20
117.992092217273
 30
0.0
 11
1118.01944525813
 21
117.4290387423619
 31
0.0
  0
MTEXT
  5
7B84
330
7A1E
100
AcDbEntity
  8
标注
100
AcDbMText
 10
1117.041512065369
 20
120.0034754309798
 30
0.0
 40
0.65
 41
0.0
 71
     5
 72
     1
  1
\A1;R1/2"
 11
0.4996348593125095
 21
-0.8662361152478975
 31
0.0
 73
     1
 44
1.0
1001
ACAD
1000
MTEXTBEGIN
1070
    73
1070
     1
1070
    44
1040
1.0
1070
    74
1070
     0
1000
MTEXTEND
  0
LINE
  5
7B85
330
7A1E
100
AcDbEntity
  8
标注
370
    -2
100
AcDbLine
 10
1117.133871975996
 20
118.9643911009609
 30
0.0
 11
1117.369919941024
 21
118.5551456921841
 31
0.0
  0
SOLID
  5
7B86
330
7A1E
100
AcDbEntity
  8
标注
100
AcDbTrace
 10
1117.788524845396
 20
118.0462193270319
 30
0.0
 11
1117.600840353759
 21
117.9379651075142
 31
0.0
 12
1117.369919941024
 22
118.5551456921841
 32
0.0
 13
1117.369919941024
 23
118.5551456921841
 33
0.0
  0
ARC
  5
7B87
330
7A1E
100
AcDbEntity
  8
标注
370
    -2
100
AcDbCircle
 10
1117.133871975996
 20
118.9643911009609
 30
0.0
 40
0.4724409448798497
100
AcDbArc
 50
270.0
 51
338.784186749136
  0
POINT
  5
7B88
330
7A1E
100
AcDbEntity
  8
DEFPOINTS
 62
     0
100
AcDbPoint
 10
1117.369919941024
 20
118.5551456921841
 30
0.0
  0
POINT
  5
7B89
330
7A1E
100
AcDbEntity
  8
DEFPOINTS
 62
     0
100
AcDbPoint
 10
1117.133871975996
 20
118.9643911009609
 30
0.0
  0
ENDBLK
  5
7A20
330
7A1E
100
AcDbEntity
  8
0
100
AcDbBlockEnd
  0
BLOCK
  5
7A28
330
7A27
100
AcDbEntity
  8
0
100
AcDbBlockBegin
  2
*D313
 70
     1
 10
0.0
 20
0.0
 30
0.0
  3
*D313
  1

  0
LINE
  5
7B8A
330
7A27
100
AcDbEntity
  8
标注
370
    -2
100
AcDbLine
 10
1120.146011079768
 20
122.0759408571511
 30
0.0
 11
1119.926392876692
 21
122.6877151986186
 31
0.0
  0
MTEXT
  5
7B8B
330
7A27
100
AcDbEntity
  8
标注
100
AcDbMText
 10
1120.508330853044
 20
122.8917439178633
 30
0.0
 40
0.65
 41
0.0
 71
     5
 72
     1
  1
\A1;R1/2"
 11
0.3378741585777398
 21
-0.9411912945652357
 31
0.0
 73
     1
 44
1.0
1001
ACAD
1000
MTEXTBEGIN
1070
    73
1070
     1
1070
    44
1040
1.0
1070
    74
1070
     0
1000
MTEXTEND
  0
LINE
  5
7B8C
330
7A27
100
AcDbEntity
  8
标注
370
    -2
100
AcDbLine
 10
1120.525254869572
 20
121.0195092111667
 30
0.0
 11
1120.365629282844
 21
121.4641665156837
 31
0.0
  0
SOLID
  5
7B8D
330
7A27
100
AcDbEntity
  8
标注
100
AcDbTrace
 10
1120.247973470013
 20
122.112543890997
 30
0.0
 11
1120.044048689523
 21
122.0393378233052
 31
0.0
 12
1120.365629282844
 22
121.4641665156837
 32
0.0
 13
1120.365629282844
 23
121.4641665156837
 33
0.0
  0
ARC
  5
7B8E
330
7A27
100
AcDbEntity
  8
标注
370
    -2
100
AcDbCircle
 10
1120.525254869572
 20
121.0195092111667
 30
0.0
 40
0.472440944879736
100
AcDbArc
 50
90.0
 51
148.5557504632996
  0
POINT
  5
7B8F
330
7A27
100
AcDbEntity
  8
DEFPOINTS
 62
     0
100
AcDbPoint
 10
1120.365629282844
 20
121.4641665156837
 30
0.0
  0
POINT
  5
7B90
330
7A27
100
AcDbEntity
  8
DEFPOINTS
 62
     0
100
AcDbPoint
 10
1120.525254869572
 20
121.0195092111667
 30
0.0
  0
ENDBLK
  5
7A29
330
7A27
100
AcDbEntity
  8
0
100
AcDbBlockEnd
  0
BLOCK
  5
7C8E
330
7C8D
100
AcDbEntity
  8
0
100
AcDbBlockBegin
  2
*D315
 70
     1
 10
0.0
 20
0.0
 30
0.0
  3
*D315
  1

  0
LINE
  5
7C90
330
7C8D
100
AcDbEntity
  8
标注
370
    -2
100
AcDbLine
 10
1158.700856327038
 20
107.0912979703644
 30
0.0
 11
1158.700856327038
 21
104.1161975752925
 31
0.0
  0
LINE
  5
7C91
330
7C8D
100
AcDbEntity
  8
标注
370
    -2
100
AcDbLine
 10
1188.858276327058
 20
107.0912979703644
 30
0.0
 11
1188.858276327058
 21
104.1161975752925
 31
0.0
  0
LINE
  5
7C92
330
7C8D
100
AcDbEntity
  8
标注
370
    -2
100
AcDbLine
 10
1159.350856327038
 20
104.4361975752924
 30
0.0
 11
1172.096431947785
 21
104.4361975752924
 31
0.0
  0
LINE
  5
7C93
330
7C8D
100
AcDbEntity
  8
标注
370
    -2
100
AcDbLine
 10
1188.208276327058
 20
104.4361975752924
 30
0.0
 11
1175.462700706312
 21
104.4361975752924
 31
0.0
  0
SOLID
  5
7C94
330
7C8D
100
AcDbEntity
  8
标注
100
AcDbTrace
 10
1159.350856327038
 20
104.5445309086258
 30
0.0
 11
1159.350856327038
 21
104.3278642419591
 31
0.0
 12
1158.700856327038
 22
104.4361975752924
 32
0.0
 13
1158.700856327038
 23
104.4361975752924
 33
0.0
  0
SOLID
  5
7C95
330
7C8D
100
AcDbEntity
  8
标注
100
AcDbTrace
 10
1188.208276327058
 20
104.5445309086258
 30
0.0
 11
1188.208276327058
 21
104.3278642419591
 31
0.0
 12
1188.858276327058
 22
104.4361975752924
 32
0.0
 13
1188.858276327058
 23
104.4361975752924
 33
0.0
  0
MTEXT
  5
7C96
330
7C8D
100
AcDbEntity
  8
标注
100
AcDbMText
 10
1173.779566327048
 20
104.4361975752924
 30
0.0
 40
0.65
 41
0.0
 71
     5
 72
     1
  1
\A1;30 1/8"
 73
     1
 44
1.0
1001
ACAD
1000
MTEXTBEGIN
1070
    73
1070
     1
1070
    44
1040
1.0
1070
    74
1070
     0
1000
MTEXTEND
  0
POINT
  5
7C97
330
7C8D
100
AcDbEntity
  8
DEFPOINTS
 62
     0
100
AcDbPoint
 10
1158.700856327038
 20
107.9712979703644
 30
0.0
  0
POINT
  5
7C98
330
7C8D
100
AcDbEntity
  8
DEFPOINTS
 62
     0
100
AcDbPoint
 10
1188.858276327058
 20
107.9712979703644
 30
0.0
  0
POINT
  5
7C99
330
7C8D
100
AcDbEntity
  8
DEFPOINTS
 62
     0
100
AcDbPoint
 10
1188.858276327058
 20
104.4361975752924
 30
0.0
  0
ENDBLK
  5
7C8F
330
7C8D
100
AcDbEntity
  8
0
100
AcDbBlockEnd
  0
BLOCK
  5
7C9C
330
7C9B
100
AcDbEntity
  8
0
100
AcDbBlockBegin
  2
*D316
 70
     1
 10
0.0
 20
0.0
 30
0.0
  3
*D316
  1

  0
LINE
  5
7C9E
330
7C9B
100
AcDbEntity
  8
标注
370
    -2
100
AcDbLine
 10
1189.265836327058
 20
107.4988579703667
 30
0.0
 11
1192.088898345164
 21
107.4988579703667
 31
0.0
  0
LINE
  5
7C9F
330
7C9B
100
AcDbEntity
  8
标注
370
    -2
100
AcDbLine
 10
1189.265836327058
 20
123.6563059703648
 30
0.0
 11
1192.088898345164
 21
123.6563059703648
 31
0.0
  0
LINE
  5
7CA0
330
7C9B
100
AcDbEntity
  8
标注
370
    -2
100
AcDbLine
 10
1191.768898345164
 20
108.1488579703667
 30
0.0
 11
1191.768898345164
 21
113.9248193509933
 31
0.0
  0
LINE
  5
7CA1
330
7C9B
100
AcDbEntity
  8
标注
370
    -2
100
AcDbLine
 10
1191.768898345164
 20
123.0063059703648
 30
0.0
 11
1191.768898345164
 21
117.2303445897382
 31
0.0
  0
SOLID
  5
7CA2
330
7C9B
100
AcDbEntity
  8
标注
100
AcDbTrace
 10
1191.660565011831
 20
108.1488579703667
 30
0.0
 11
1191.877231678498
 21
108.1488579703667
 31
0.0
 12
1191.768898345164
 22
107.4988579703667
 32
0.0
 13
1191.768898345164
 23
107.4988579703667
 33
0.0
  0
SOLID
  5
7CA3
330
7C9B
100
AcDbEntity
  8
标注
100
AcDbTrace
 10
1191.660565011831
 20
123.0063059703648
 30
0.0
 11
1191.877231678498
 21
123.0063059703648
 31
0.0
 12
1191.768898345164
 22
123.6563059703648
 32
0.0
 13
1191.768898345164
 23
123.6563059703648
 33
0.0
  0
MTEXT
  5
7CA4
330
7C9B
100
AcDbEntity
  8
标注
100
AcDbMText
 10
1191.768898345164
 20
115.5775819703659
 30
0.0
 40
0.65
 41
0.0
 71
     5
 72
     1
  1
\A1;16 1/8"
 11
0.0000000000000001
 21
1.0
 31
0.0
 73
     1
 44
1.0
1001
ACAD
1000
MTEXTBEGIN
1070
    73
1070
     1
1070
    44
1040
1.0
1070
    74
1070
     0
1000
MTEXTEND
  0
POINT
  5
7CA5
330
7C9B
100
AcDbEntity
  8
DEFPOINTS
 62
     0
100
AcDbPoint
 10
1188.385836327058
 20
107.4988579703667
 30
0.0
  0
POINT
  5
7CA6
330
7C9B
100
AcDbEntity
  8
DEFPOINTS
 62
     0
100
AcDbPoint
 10
1188.385836327058
 20
123.6563059703648
 30
0.0
  0
POINT
  5
7CA7
330
7C9B
100
AcDbEntity
  8
DEFPOINTS
 62
     0
100
AcDbPoint
 10
1191.768898345164
 20
123.6563059703648
 30
0.0
  0
ENDBLK
  5
7C9D
330
7C9B
100
AcDbEntity
  8
0
100
AcDbBlockEnd
  0
BLOCK
  5
7CAA
330
7CA9
100
AcDbEntity
  8
0
100
AcDbBlockBegin
  2
*D317
 70
     1
 10
0.0
 20
0.0
 30
0.0
  3
*D317
  1

  0
LINE
  5
7CB2
330
7CA9
100
AcDbEntity
  8
标注
370
    -2
100
AcDbLine
 10
1158.242571514858
 20
107.3439042522174
 30
0.0
 11
1157.703592925424
 21
106.9805833470504
 31
0.0
  0
MTEXT
  5
7CB3
330
7CA9
100
AcDbEntity
  8
标注
100
AcDbMText
 10
1159.803115025615
 20
108.8493087688254
 30
0.0
 40
0.65
 41
0.0
 71
     5
 72
     1
  1
\A1;4-R1/2"
 11
0.829197829899131
 21
0.5589552387182467
 31
0.0
 73
     1
 44
1.0
1001
ACAD
1000
MTEXTBEGIN
1070
    73
1070
     1
1070
    44
1040
1.0
1070
    74
1070
     0
1000
MTEXTEND
  0
LINE
  5
7CB4
330
7CA9
100
AcDbEntity
  8
标注
370
    -2
100
AcDbLine
 10
1159.173296327051
 20
107.9712979703644
 30
0.0
 11
1158.781550104293
 21
107.7072251573842
 31
0.0
  0
SOLID
  5
7CB5
330
7CA9
100
AcDbEntity
  8
标注
100
AcDbTrace
 10
1158.182018030664
 20
107.4337340171231
 30
0.0
 11
1158.303124999053
 21
107.2540744873116
 31
0.0
 12
1158.781550104293
 22
107.7072251573842
 32
0.0
 13
1158.781550104293
 23
107.7072251573842
 33
0.0
  0
POINT
  5
7CB6
330
7CA9
100
AcDbEntity
  8
DEFPOINTS
 62
     0
100
AcDbPoint
 10
1158.781550104293
 20
107.7072251573842
 30
0.0
  0
POINT
  5
7CB7
330
7CA9
100
AcDbEntity
  8
DEFPOINTS
 62
     0
100
AcDbPoint
 10
1159.173296327051
 20
107.9712979703644
 30
0.0
  0
ENDBLK
  5
7CAB
330
7CA9
100
AcDbEntity
  8
0
100
AcDbBlockEnd
  0
BLOCK
  5
7CBA
330
7CB9
100
AcDbEntity
  8
0
100
AcDbBlockBegin
  2
*D318
 70
     1
 10
0.0
 20
0.0
 30
0.0
  3
*D318
  1

  0
LINE
  5
7CBC
330
7CB9
100
AcDbEntity
  8
标注
370
    -2
100
AcDbLine
 10
1158.779871917056
 20
136.6722057972147
 30
0.0
 11
1158.779871917056
 21
133.6544309879646
 31
0.0
  0
LINE
  5
7CBD
330
7CB9
100
AcDbEntity
  8
标注
370
    -2
100
AcDbLine
 10
1188.779260737038
 20
136.6722057972147
 30
0.0
 11
1188.779260737038
 21
133.6544309879646
 31
0.0
  0
LINE
  5
7CBE
330
7CB9
100
AcDbEntity
  8
标注
370
    -2
100
AcDbLine
 10
1159.429871917056
 20
133.9744309879646
 30
0.0
 11
1172.853730719953
 21
133.9744309879646
 31
0.0
  0
LINE
  5
7CBF
330
7CB9
100
AcDbEntity
  8
标注
370
    -2
100
AcDbLine
 10
1188.129260737038
 20
133.9744309879646
 30
0.0
 11
1174.705401934141
 21
133.9744309879646
 31
0.0
  0
SOLID
  5
7CC0
330
7CB9
100
AcDbEntity
  8
标注
100
AcDbTrace
 10
1159.429871917056
 20
134.0827643212979
 30
0.0
 11
1159.429871917056
 21
133.8660976546313
 31
0.0
 12
1158.779871917056
 22
133.9744309879646
 32
0.0
 13
1158.779871917056
 23
133.9744309879646
 33
0.0
  0
SOLID
  5
7CC1
330
7CB9
100
AcDbEntity
  8
标注
100
AcDbTrace
 10
1188.129260737038
 20
134.0827643212979
 30
0.0
 11
1188.129260737038
 21
133.8660976546313
 31
0.0
 12
1188.779260737038
 22
133.9744309879646
 32
0.0
 13
1188.779260737038
 23
133.9744309879646
 33
0.0
  0
MTEXT
  5
7CC2
330
7CB9
100
AcDbEntity
  8
标注
100
AcDbMText
 10
1173.779566327047
 20
133.9744309879646
 30
0.0
 40
0.65
 41
0.0
 71
     5
 72
     1
  1
\A1;30"
 73
     1
 44
1.0
1001
ACAD
1000
MTEXTBEGIN
1070
    73
1070
     1
1070
    44
1040
1.0
1070
    74
1070
     0
1000
MTEXTEND
  0
POINT
  5
7CC3
330
7CB9
100
AcDbEntity
  8
DEFPOINTS
 62
     0
100
AcDbPoint
 10
1158.779871917056
 20
137.5522057972147
 30
0.0
  0
POINT
  5
7CC4
330
7CB9
100
AcDbEntity
  8
DEFPOINTS
 62
     0
100
AcDbPoint
 10
1188.779260737038
 20
137.5522057972147
 30
0.0
  0
POINT
  5
7CC5
330
7CB9
100
AcDbEntity
  8
DEFPOINTS
 62
     0
100
AcDbPoint
 10
1188.779260737038
 20
133.9744309879646
 30
0.0
  0
ENDBLK
  5
7CBB
330
7CB9
100
AcDbEntity
  8
0
100
AcDbBlockEnd
  0
BLOCK
  5
7CC8
330
7CC7
100
AcDbEntity
  8
0
100
AcDbBlockBegin
  2
*D319
 70
     1
 10
0.0
 20
0.0
 30
0.0
  3
*D319
  1

  0
LINE
  5
7CCA
330
7CC7
100
AcDbEntity
  8
标注
370
    -2
100
AcDbLine
 10
1157.780582577037
 20
136.1268236996693
 30
0.0
 11
1157.780582577037
 21
131.613538442364
 31
0.0
  0
LINE
  5
7CCB
330
7CC7
100
AcDbEntity
  8
标注
370
    -2
100
AcDbLine
 10
1189.778550077043
 20
136.1268236996693
 30
0.0
 11
1189.778550077043
 21
131.613538442364
 31
0.0
  0
LINE
  5
7CCC
330
7CC7
100
AcDbEntity
  8
标注
370
    -2
100
AcDbLine
 10
1158.430582577037
 20
131.933538442364
 30
0.0
 11
1172.853730719946
 21
131.933538442364
 31
0.0
  0
LINE
  5
7CCD
330
7CC7
100
AcDbEntity
  8
标注
370
    -2
100
AcDbLine
 10
1189.128550077043
 20
131.933538442364
 30
0.0
 11
1174.705401934134
 21
131.933538442364
 31
0.0
  0
SOLID
  5
7CCE
330
7CC7
100
AcDbEntity
  8
标注
100
AcDbTrace
 10
1158.430582577037
 20
132.0418717756973
 30
0.0
 11
1158.430582577037
 21
131.8252051090307
 31
0.0
 12
1157.780582577037
 22
131.933538442364
 32
0.0
 13
1157.780582577037
 23
131.933538442364
 33
0.0
  0
SOLID
  5
7CCF
330
7CC7
100
AcDbEntity
  8
标注
100
AcDbTrace
 10
1189.128550077043
 20
132.0418717756973
 30
0.0
 11
1189.128550077043
 21
131.8252051090307
 31
0.0
 12
1189.778550077043
 22
131.933538442364
 32
0.0
 13
1189.778550077043
 23
131.933538442364
 33
0.0
  0
MTEXT
  5
7CD0
330
7CC7
100
AcDbEntity
  8
标注
100
AcDbMText
 10
1173.77956632704
 20
131.933538442364
 30
0.0
 40
0.65
 41
0.0
 71
     5
 72
     1
  1
\A1;32"
 73
     1
 44
1.0
1001
ACAD
1000
MTEXTBEGIN
1070
    73
1070
     1
1070
    44
1040
1.0
1070
    74
1070
     0
1000
MTEXTEND
  0
POINT
  5
7CD1
330
7CC7
100
AcDbEntity
  8
DEFPOINTS
 62
     0
100
AcDbPoint
 10
1157.780582577037
 20
137.0068236996693
 30
0.0
  0
POINT
  5
7CD2
330
7CC7
100
AcDbEntity
  8
DEFPOINTS
 62
     0
100
AcDbPoint
 10
1189.778550077043
 20
137.0068236996693
 30
0.0
  0
POINT
  5
7CD3
330
7CC7
100
AcDbEntity
  8
DEFPOINTS
 62
     0
100
AcDbPoint
 10
1189.778550077043
 20
131.933538442364
 30
0.0
  0
ENDBLK
  5
7CC9
330
7CC7
100
AcDbEntity
  8
0
100
AcDbBlockEnd
  0
BLOCK
  5
7CD6
330
7CD5
100
AcDbEntity
  8
0
100
AcDbBlockBegin
  2
*D320
 70
     1
 10
0.0
 20
0.0
 30
0.0
  3
*D320
  1

  0
LINE
  5
7CD8
330
7CD5
100
AcDbEntity
  8
标注
370
    -2
100
AcDbLine
 10
1189.265560737038
 20
137.1585057972214
 30
0.0
 11
1191.871826955997
 21
137.1585057972214
 31
0.0
  0
LINE
  5
7CD9
330
7CD5
100
AcDbEntity
  8
标注
370
    -2
100
AcDbLine
 10
1189.265560737038
 20
153.1583163172202
 30
0.0
 11
1191.871826955997
 21
153.1583163172202
 31
0.0
  0
LINE
  5
7CDA
330
7CD5
100
AcDbEntity
  8
标注
370
    -2
100
AcDbLine
 10
1191.551826955998
 20
137.8085057972215
 30
0.0
 11
1191.551826955998
 21
144.2629472100175
 31
0.0
  0
LINE
  5
7CDB
330
7CD5
100
AcDbEntity
  8
标注
370
    -2
100
AcDbLine
 10
1191.551826955998
 20
152.5083163172202
 30
0.0
 11
1191.551826955998
 21
146.0538749044241
 31
0.0
  0
SOLID
  5
7CDC
330
7CD5
100
AcDbEntity
  8
标注
100
AcDbTrace
 10
1191.443493622664
 20
137.8085057972215
 30
0.0
 11
1191.660160289331
 21
137.8085057972215
 31
0.0
 12
1191.551826955998
 22
137.1585057972214
 32
0.0
 13
1191.551826955998
 23
137.1585057972214
 33
0.0
  0
SOLID
  5
7CDD
330
7CD5
100
AcDbEntity
  8
标注
100
AcDbTrace
 10
1191.443493622664
 20
152.5083163172202
 30
0.0
 11
1191.660160289331
 21
152.5083163172202
 31
0.0
 12
1191.551826955998
 22
153.1583163172202
 32
0.0
 13
1191.551826955998
 23
153.1583163172202
 33
0.0
  0
MTEXT
  5
7CDE
330
7CD5
100
AcDbEntity
  8
标注
100
AcDbMText
 10
1191.551826955998
 20
145.158411057221
 30
0.0
 40
0.65
 41
0.0
 71
     5
 72
     1
  1
\A1;16"
 11
0.0000000000000001
 21
1.0
 31
0.0
 73
     1
 44
1.0
1001
ACAD
1000
MTEXTBEGIN
1070
    73
1070
     1
1070
    44
1040
1.0
1070
    74
1070
     0
1000
MTEXTEND
  0
POINT
  5
7CDF
330
7CD5
100
AcDbEntity
  8
DEFPOINTS
 62
     0
100
AcDbPoint
 10
1188.385560737038
 20
137.1585057972214
 30
0.0
  0
POINT
  5
7CE0
330
7CD5
100
AcDbEntity
  8
DEFPOINTS
 62
     0
100
AcDbPoint
 10
1188.385560737038
 20
153.1583163172202
 30
0.0
  0
POINT
  5
7CE1
330
7CD5
100
AcDbEntity
  8
DEFPOINTS
 62
     0
100
AcDbPoint
 10
1191.551826955998
 20
153.1583163172202
 30
0.0
  0
ENDBLK
  5
7CD7
330
7CD5
100
AcDbEntity
  8
0
100
AcDbBlockEnd
  0
BLOCK
  5
7CE4
330
7CE3
100
AcDbEntity
  8
0
100
AcDbBlockBegin
  2
*D321
 70
     1
 10
0.0
 20
0.0
 30
0.0
  3
*D321
  1

  0
LINE
  5
7CE6
330
7CE3
100
AcDbEntity
  8
标注
370
    -2
100
AcDbLine
 10
1189.659260737038
 20
136.1584290572163
 30
0.0
 11
1193.783540359578
 21
136.1584290572163
 31
0.0
  0
LINE
  5
7CE7
330
7CE3
100
AcDbEntity
  8
标注
370
    -2
100
AcDbLine
 10
1189.659260737038
 20
154.1583930572186
 30
0.0
 11
1193.783540359578
 21
154.1583930572186
 31
0.0
  0
LINE
  5
7CE8
330
7CE3
100
AcDbEntity
  8
标注
370
    -2
100
AcDbLine
 10
1193.463540359579
 20
136.8084290572163
 30
0.0
 11
1193.463540359579
 21
144.2629472100142
 31
0.0
  0
LINE
  5
7CE9
330
7CE3
100
AcDbEntity
  8
标注
370
    -2
100
AcDbLine
 10
1193.463540359579
 20
153.5083930572186
 30
0.0
 11
1193.463540359579
 21
146.0538749044207
 31
0.0
  0
SOLID
  5
7CEA
330
7CE3
100
AcDbEntity
  8
标注
100
AcDbTrace
 10
1193.355207026245
 20
136.8084290572163
 30
0.0
 11
1193.571873692912
 21
136.8084290572163
 31
0.0
 12
1193.463540359579
 22
136.1584290572163
 32
0.0
 13
1193.463540359579
 23
136.1584290572163
 33
0.0
  0
SOLID
  5
7CEB
330
7CE3
100
AcDbEntity
  8
标注
100
AcDbTrace
 10
1193.355207026245
 20
153.5083930572186
 30
0.0
 11
1193.571873692912
 21
153.5083930572186
 31
0.0
 12
1193.463540359579
 22
154.1583930572186
 32
0.0
 13
1193.463540359579
 23
154.1583930572186
 33
0.0
  0
MTEXT
  5
7CEC
330
7CE3
100
AcDbEntity
  8
标注
100
AcDbMText
 10
1193.463540359579
 20
145.1584110572176
 30
0.0
 40
0.65
 41
0.0
 71
     5
 72
     1
  1
\A1;18"
 11
0.0000000000000001
 21
1.0
 31
0.0
 73
     1
 44
1.0
1001
ACAD
1000
MTEXTBEGIN
1070
    73
1070
     1
1070
    44
1040
1.0
1070
    74
1070
     0
1000
MTEXTEND
  0
POINT
  5
7CED
330
7CE3
100
AcDbEntity
  8
DEFPOINTS
 62
     0
100
AcDbPoint
 10
1188.779260737038
 20
136.1584290572163
 30
0.0
  0
POINT
  5
7CEE
330
7CE3
100
AcDbEntity
  8
DEFPOINTS
 62
     0
100
AcDbPoint
 10
1188.779260737038
 20
154.1583930572186
 30
0.0
  0
POINT
  5
7CEF
330
7CE3
100
AcDbEntity
  8
DEFPOINTS
 62
     0
100
AcDbPoint
 10
1193.463540359579
 20
154.1583930572186
 30
0.0
  0
ENDBLK
  5
7CE5
330
7CE3
100
AcDbEntity
  8
0
100
AcDbBlockEnd
  0
BLOCK
  5
7CF2
330
7CF1
100
AcDbEntity
  8
0
100
AcDbBlockBegin
  2
*D322
 70
     1
 10
0.0
 20
0.0
 30
0.0
  3
*D322
  1

  0
LINE
  5
7CF4
330
7CF1
100
AcDbEntity
  8
标注
370
    -2
100
AcDbLine
 10
1190.658550077043
 20
178.3260017809824
 30
0.0
 11
1192.665989401725
 21
178.3260017809824
 31
0.0
  0
LINE
  5
7CF5
330
7CF1
100
AcDbEntity
  8
标注
370
    -2
100
AcDbLine
 10
1190.658550077043
 20
168.3260017809824
 30
0.0
 11
1192.665989401725
 21
168.3260017809824
 31
0.0
  0
LINE
  5
7CF6
330
7CF1
100
AcDbEntity
  8
标注
370
    -2
100
AcDbLine
 10
1192.345989401725
 20
177.6760017809824
 30
0.0
 11
1192.345989401725
 21
174.2214656281857
 31
0.0
  0
LINE
  5
7CF7
330
7CF1
100
AcDbEntity
  8
标注
370
    -2
100
AcDbLine
 10
1192.345989401725
 20
168.9760017809824
 30
0.0
 11
1192.345989401725
 21
172.4305379337791
 31
0.0
  0
SOLID
  5
7CF8
330
7CF1
100
AcDbEntity
  8
标注
100
AcDbTrace
 10
1192.237656068392
 20
177.6760017809824
 30
0.0
 11
1192.454322735058
 21
177.6760017809824
 31
0.0
 12
1192.345989401725
 22
178.3260017809824
 32
0.0
 13
1192.345989401725
 23
178.3260017809824
 33
0.0
  0
SOLID
  5
7CF9
330
7CF1
100
AcDbEntity
  8
标注
100
AcDbTrace
 10
1192.237656068392
 20
168.9760017809824
 30
0.0
 11
1192.454322735058
 21
168.9760017809824
 31
0.0
 12
1192.345989401725
 22
168.3260017809824
 32
0.0
 13
1192.345989401725
 23
168.3260017809824
 33
0.0
  0
MTEXT
  5
7CFA
330
7CF1
100
AcDbEntity
  8
标注
100
AcDbMText
 10
1192.345989401725
 20
173.3260017809826
 30
0.0
 40
0.65
 41
0.0
 71
     5
 72
     1
  1
\A1;10"
 11
0.0000000000000001
 21
1.0
 31
0.0
 73
     1
 44
1.0
1001
ACAD
1000
MTEXTBEGIN
1070
    73
1070
     1
1070
    44
1040
1.0
1070
    74
1070
     0
1000
MTEXTEND
  0
POINT
  5
7CFB
330
7CF1
100
AcDbEntity
  8
DEFPOINTS
 62
     0
100
AcDbPoint
 10
1189.778550077043
 20
178.3260017809824
 30
0.0
  0
POINT
  5
7CFC
330
7CF1
100
AcDbEntity
  8
DEFPOINTS
 62
     0
100
AcDbPoint
 10
1189.778550077043
 20
168.3260017809824
 30
0.0
  0
POINT
  5
7CFD
330
7CF1
100
AcDbEntity
  8
DEFPOINTS
 62
     0
100
AcDbPoint
 10
1192.345989401725
 20
168.3260017809824
 30
0.0
  0
ENDBLK
  5
7CF3
330
7CF1
100
AcDbEntity
  8
0
100
AcDbBlockEnd
  0
BLOCK
  5
7D00
330
7CFF
100
AcDbEntity
  8
0
100
AcDbBlockBegin
  2
*D323
 70
     1
 10
0.0
 20
0.0
 30
0.0
  3
*D323
  1

  0
LINE
  5
7D08
330
7CFF
100
AcDbEntity
  8
标注
370
    -2
100
AcDbLine
 10
1158.439654782125
 20
153.5066913330212
 30
0.0
 11
1157.982582694652
 21
153.9688440208344
 31
0.0
  0
MTEXT
  5
7D09
330
7CFF
100
AcDbEntity
  8
标注
100
AcDbMText
 10
1157.970201222599
 20
154.9044817703707
 30
0.0
 40
0.65
 41
0.0
 71
     5
 72
     1
  1
\A1;4-R3/8"
 11
0.7031878268817781
 21
-0.7110041350971757
 31
0.0
 73
     1
 44
1.0
1001
ACAD
1000
MTEXTBEGIN
1070
    73
1070
     1
1070
    44
1040
1.0
1070
    74
1070
     0
1000
MTEXTEND
  0
LINE
  5
7D0A
330
7CFF
100
AcDbEntity
  8
标注
370
    -2
100
AcDbLine
 10
1159.173571917042
 20
152.7646163172202
 30
0.0
 11
1158.896726869599
 21
153.0445386452081
 31
0.0
  0
SOLID
  5
7D0B
330
7CFF
100
AcDbEntity
  8
标注
100
AcDbTrace
 10
1158.516680230094
 20
153.5828700142668
 30
0.0
 11
1158.362629334156
 21
153.4305126517757
 31
0.0
 12
1158.896726869599
 22
153.0445386452081
 32
0.0
 13
1158.896726869599
 23
153.0445386452081
 33
0.0
  0
POINT
  5
7D0C
330
7CFF
100
AcDbEntity
  8
DEFPOINTS
 62
     0
100
AcDbPoint
 10
1158.896726869599
 20
153.0445386452081
 30
0.0
  0
POINT
  5
7D0D
330
7CFF
100
AcDbEntity
  8
DEFPOINTS
 62
     0
100
AcDbPoint
 10
1159.173571917042
 20
152.7646163172202
 30
0.0
  0
ENDBLK
  5
7D01
330
7CFF
100
AcDbEntity
  8
0
100
AcDbBlockEnd
  0
BLOCK
  5
7D10
330
7D0F
100
AcDbEntity
  8
0
100
AcDbBlockBegin
  2
*D324
 70
     1
 10
0.0
 20
0.0
 30
0.0
  3
*D324
  1

  0
LINE
  5
7D12
330
7D0F
100
AcDbEntity
  8
标注
370
    -2
100
AcDbLine
 10
1158.306490727208
 20
168.1941222358644
 30
0.0
 11
1157.763543871414
 21
167.836758678989
 31
0.0
  0
MTEXT
  5
7D13
330
7D0F
100
AcDbEntity
  8
标注
100
AcDbMText
 10
1159.844581208625
 20
169.7808916533022
 30
0.0
 40
0.65
 41
0.0
 71
     5
 72
     1
  1
\A1;R3/8"
 11
0.8353028550686579
 21
0.5497900875008104
 31
0.0
 73
     1
 44
1.0
1001
ACAD
1000
MTEXTBEGIN
1070
    73
1070
     1
1070
    44
1040
1.0
1070
    74
1070
     0
1000
MTEXTEND
  0
LINE
  5
7D14
330
7D0F
100
AcDbEntity
  8
标注
370
    -2
100
AcDbLine
 10
1159.178296317044
 20
168.7679381501892
 30
0.0
 11
1158.849437583003
 21
168.55148579274
 31
0.0
  0
SOLID
  5
7D15
330
7D0F
100
AcDbEntity
  8
标注
100
AcDbTrace
 10
1158.246930134396
 20
168.2846133784969
 30
0.0
 11
1158.366051320021
 21
168.1036310932319
 31
0.0
 12
1158.849437583003
 22
168.55148579274
 32
0.0
 13
1158.849437583003
 23
168.55148579274
 33
0.0
  0
POINT
  5
7D16
330
7D0F
100
AcDbEntity
  8
DEFPOINTS
 62
     0
100
AcDbPoint
 10
1158.849437583003
 20
168.55148579274
 30
0.0
  0
POINT
  5
7D17
330
7D0F
100
AcDbEntity
  8
DEFPOINTS
 62
     0
100
AcDbPoint
 10
1159.178296317044
 20
168.7679381501892
 30
0.0
  0
ENDBLK
  5
7D11
330
7D0F
100
AcDbEntity
  8
0
100
AcDbBlockEnd
  0
ENDSEC
  0
SECTION
  2
ENTITIES
  0
LINE
  5
7C2A
330
5F6E
100
AcDbEntity
  8
0
100
AcDbLine
 10
1158.628977219504
 20
154.1583930572186
 30
0.0
 11
1188.930155434605
 21
154.1583930572186
 31
0.0
  0
LINE
  5
7C2B
330
5F6E
100
AcDbEntity
  8
0
100
AcDbLine
 10
1159.173571917042
 20
153.1583163172207
 30
0.0
 11
1188.385560737038
 21
153.1583163172207
 31
0.0
  0
LINE
  5
7C2C
330
5F6E
100
AcDbEntity
  8
0
100
AcDbLine
 10
1188.930155434605
 20
136.1584290572163
 30
0.0
 11
1158.628977219504
 21
136.1584290572163
 31
0.0
  0
LINE
  5
7C2D
330
5F6E
100
AcDbEntity
  8
0
100
AcDbLine
 10
1188.385560737038
 20
137.1585057972214
 30
0.0
 11
1159.173571917042
 21
137.1585057972214
 31
0.0
  0
LINE
  5
7C2E
330
5F6E
100
AcDbEntity
  8
0
100
AcDbLine
 10
1157.780582577037
 20
153.3099984147729
 30
0.0
 11
1157.780582577037
 21
137.0068236996693
 31
0.0
  0
LINE
  5
7C2F
330
5F6E
100
AcDbEntity
  8
0
100
AcDbLine
 10
1158.779871917056
 20
152.7646163172202
 30
0.0
 11
1158.779871917056
 21
137.5522057972147
 31
0.0
  0
LINE
  5
7C30
330
5F6E
100
AcDbEntity
  8
0
100
AcDbLine
 10
1188.779260737053
 20
152.7646163172202
 30
0.0
 11
1188.779260737053
 21
137.5522057972147
 31
0.0
  0
LINE
  5
7C31
330
5F6E
100
AcDbEntity
  8
0
100
AcDbLine
 10
1189.778550077043
 20
153.3099984147729
 30
0.0
 11
1189.778550077043
 21
137.0068236996693
 31
0.0
  0
LINE
  5
7C32
330
5F6E
100
AcDbEntity
  8
细实线
100
AcDbLine
 10
1159.173571917042
 20
152.7646163172202
 30
0.0
 11
1171.601906739571
 21
149.3169142183277
 31
0.0
  0
LINE
  5
7C33
330
5F6E
100
AcDbEntity
  8
细实线
100
AcDbLine
 10
1172.035617430421
 20
147.1558473228387
 30
0.0
 11
1159.173571917042
 21
137.5522057972147
 31
0.0
  0
LINE
  5
7C34
330
5F6E
100
AcDbEntity
  8
0
100
AcDbLine
 10
1189.778550077043
 20
178.3260017809824
 30
0.0
 11
1188.872961337055
 21
178.3260017809824
 31
0.0
  0
LINE
  5
7C35
330
5F6E
100
AcDbEntity
  8
0
100
AcDbLine
 10
1189.778550077043
 20
178.2669467809845
 30
0.0
 11
1188.872961337055
 21
178.2669467809845
 31
0.0
  0
ARC
  5
7C36
330
5F6E
100
AcDbEntity
  8
虚线
 48
5.0
100
AcDbCircle
 10
1188.872961337055
 20
178.2275767809859
 30
0.0
 40
0.098425
100
AcDbArc
 50
90.0
 51
180.0
  0
ARC
  5
7C37
330
5F6E
100
AcDbEntity
  8
0
100
AcDbCircle
 10
1188.872961337055
 20
178.2275767809859
 30
0.0
 40
0.03937
100
AcDbArc
 50
90.0
 51
180.0
  0
LINE
  5
7C38
330
5F6E
100
AcDbEntity
  8
0
100
AcDbLine
 10
1158.686171317054
 20
178.3260017809824
 30
0.0
 11
1157.780582577037
 21
178.3260017809824
 31
0.0
  0
LINE
  5
7C39
330
5F6E
100
AcDbEntity
  8
0
100
AcDbLine
 10
1158.686171317054
 20
178.2669467809845
 30
0.0
 11
1157.780582577037
 21
178.2669467809845
 31
0.0
  0
LINE
  5
7C3A
330
5F6E
100
AcDbEntity
  8
虚线
 48
5.0
100
AcDbLine
 10
1188.774536337051
 20
168.7679381501892
 30
0.0
 11
1188.774536337051
 21
178.2275767809859
 31
0.0
  0
LINE
  5
7C3B
330
5F6E
100
AcDbEntity
  8
0
100
AcDbLine
 10
1188.833591337042
 20
168.7679381501892
 30
0.0
 11
1188.833591337042
 21
178.2275767809859
 31
0.0
  0
ARC
  5
7C3C
330
5F6E
100
AcDbEntity
  8
虚线
 48
5.0
100
AcDbCircle
 10
1188.380836337036
 20
168.7679381501892
 30
0.0
 40
0.3937
100
AcDbArc
 50
270.9569421424614
 51
0.0
  0
ARC
  5
7C3D
330
5F6E
100
AcDbEntity
  8
0
100
AcDbCircle
 10
1188.380836337036
 20
168.7679381501892
 30
0.0
 40
0.452755
100
AcDbArc
 50
270.9569421424614
 51
0.0
  0
LINE
  5
7C3E
330
5F6E
100
AcDbEntity
  8
虚线
 48
5.0
100
AcDbLine
 10
1158.784596317057
 20
168.7679381501892
 30
0.0
 11
1158.784596317057
 21
178.2275767809859
 31
0.0
  0
LINE
  5
7C3F
330
5F6E
100
AcDbEntity
  8
0
100
AcDbLine
 10
1158.725541317038
 20
168.7679381501892
 30
0.0
 11
1158.725541317038
 21
178.2275767809859
 31
0.0
  0
ARC
  5
7C40
330
5F6E
100
AcDbEntity
  8
虚线
 48
5.0
100
AcDbCircle
 10
1158.686171317054
 20
178.2275767809859
 30
0.0
 40
0.098425
100
AcDbArc
 50
0.0
 51
90.0
  0
ARC
  5
7C41
330
5F6E
100
AcDbEntity
  8
0
100
AcDbCircle
 10
1158.686171317054
 20
178.2275767809859
 30
0.0
 40
0.03937
100
AcDbArc
 50
0.0
 51
90.0
  0
ARC
  5
7C42
330
5F6E
100
AcDbEntity
  8
虚线
 48
5.0
100
AcDbCircle
 10
1159.178296317044
 20
168.7679381501892
 30
0.0
 40
0.3937
100
AcDbArc
 50
180.0
 51
269.0430578575385
  0
ARC
  5
7C43
330
5F6E
100
AcDbEntity
  8
0
100
AcDbCircle
 10
1159.178296317044
 20
168.7679381501892
 30
0.0
 40
0.452755
100
AcDbArc
 50
180.0
 51
269.0430578575385
  0
LINE
  5
7C44
330
5F6E
100
AcDbEntity
  8
0
100
AcDbLine
 10
1188.872961337055
 20
178.3260017809824
 30
0.0
 11
1158.686171317054
 21
178.3260017809824
 31
0.0
  0
LINE
  5
7C45
330
5F6E
100
AcDbEntity
  8
虚线
 48
5.0
100
AcDbLine
 10
1171.423110332648
 20
168.2777546674641
 30
0.0
 11
1159.171721127542
 21
168.3742930601891
 31
0.0
  0
LINE
  5
7C46
330
5F6E
100
AcDbEntity
  8
0
100
AcDbLine
 10
1171.423110332648
 20
168.2186996674662
 30
0.0
 11
1159.170734849106
 21
168.3152462966917
 31
0.0
  0
LINE
  5
7C47
330
5F6E
100
AcDbEntity
  8
虚线
 48
5.0
100
AcDbLine
 10
1176.136022321432
 20
168.2777546674641
 30
0.0
 11
1188.387411526567
 21
168.3742930601891
 31
0.0
  0
LINE
  5
7C48
330
5F6E
100
AcDbEntity
  8
0
100
AcDbLine
 10
1176.136022321432
 20
168.2186996674662
 30
0.0
 11
1188.388397805002
 21
168.3152462966917
 31
0.0
  0
LINE
  5
7C49
330
5F6E
100
AcDbEntity
  8
虚线
 48
5.0
100
AcDbLine
 10
1176.107839896157
 20
168.2777546674641
 30
0.0
 11
1171.451292757952
 21
168.2777546674641
 31
0.0
  0
LINE
  5
7C4A
330
5F6E
100
AcDbEntity
  8
中心线
 48
2.0
100
AcDbLine
 10
1173.77956632704
 20
166.8396482703118
 30
0.0
 11
1173.77956632704
 21
169.7158610646091
 31
0.0
  0
ARC
  5
7C4B
330
5F6E
100
AcDbEntity
  8
0
100
AcDbCircle
 10
1159.173571917042
 20
152.7646163172202
 30
0.0
 40
0.3937
100
AcDbArc
 50
90.0
 51
180.0
  0
ARC
  5
7C4C
330
5F6E
100
AcDbEntity
  8
0
100
AcDbCircle
 10
1188.385560737038
 20
152.7646163172202
 30
0.0
 40
0.3937
100
AcDbArc
 50
0.0
 51
90.0
  0
ARC
  5
7C4D
330
5F6E
100
AcDbEntity
  8
0
100
AcDbCircle
 10
1188.385560737038
 20
137.5522057972147
 30
0.0
 40
0.3937
100
AcDbArc
 50
270.0
 51
0.0
  0
ARC
  5
7C4E
330
5F6E
100
AcDbEntity
  8
0
100
AcDbCircle
 10
1159.173571917042
 20
137.5522057972147
 30
0.0
 40
0.3937
100
AcDbArc
 50
180.0
 51
270.0
  0
ARC
  5
7C4F
330
5F6E
100
AcDbEntity
  8
虚线
 48
5.0
100
AcDbCircle
 10
1171.423110332648
 20
168.159644667461
 30
0.0
 40
0.11811
100
AcDbArc
 50
26.56505106372467
 51
90.0
  0
ARC
  5
7C50
330
5F6E
100
AcDbEntity
  8
0
100
AcDbCircle
 10
1171.423110332648
 20
168.159644667461
 30
0.0
 40
0.059055
100
AcDbArc
 50
26.56505106372467
 51
90.0
  0
ARC
  5
7C51
330
5F6E
100
AcDbEntity
  8
虚线
 48
5.0
100
AcDbCircle
 10
1176.13602232146
 20
168.159644667461
 30
0.0
 40
0.11811
100
AcDbArc
 50
90.0
 51
153.434948671163
  0
ARC
  5
7C52
330
5F6E
100
AcDbEntity
  8
0
100
AcDbCircle
 10
1176.13602232146
 20
168.159644667461
 30
0.0
 40
0.059055
100
AcDbArc
 50
90.0
 51
153.434948671163
  0
ARC
  5
7C53
330
5F6E
100
AcDbEntity
  8
虚线
 48
5.0
100
AcDbCircle
 10
1171.650714324252
 20
168.1005896674631
 30
0.0
 40
0.059055
100
AcDbArc
 50
206.5650516506218
 51
269.9999999583118
  0
ARC
  5
7C54
330
5F6E
100
AcDbEntity
  8
0
100
AcDbCircle
 10
1171.650714324252
 20
168.1005896674631
 30
0.0
 40
0.11811
100
AcDbArc
 50
206.5650516506218
 51
269.9999999583118
  0
ARC
  5
7C55
330
5F6E
100
AcDbEntity
  8
虚线
 48
5.0
100
AcDbCircle
 10
1175.908418329857
 20
168.1005896674631
 30
0.0
 40
0.059055
100
AcDbArc
 50
270.0000000416882
 51
333.4349477814931
  0
ARC
  5
7C56
330
5F6E
100
AcDbEntity
  8
0
100
AcDbCircle
 10
1175.908418329857
 20
168.1005896674631
 30
0.0
 40
0.11811
100
AcDbArc
 50
270.0000000416882
 51
333.4349477814931
  0
LINE
  5
7C57
330
5F6E
100
AcDbEntity
  8
虚线
 48
5.0
100
AcDbLine
 10
1175.961238727602
 20
168.0741794686053
 30
0.0
 11
1176.030381525913
 21
168.212465065242
 31
0.0
  0
LINE
  5
7C58
330
5F6E
100
AcDbEntity
  8
0
100
AcDbLine
 10
1176.014059125376
 20
168.0477692697185
 30
0.0
 11
1176.083201923687
 21
168.1860548663624
 31
0.0
  0
LINE
  5
7C59
330
5F6E
100
AcDbEntity
  8
虚线
 48
5.0
100
AcDbLine
 10
1171.650714324252
 20
168.0415346674652
 30
0.0
 11
1172.007916327059
 21
168.0415346674652
 31
0.0
  0
LINE
  5
7C5A
330
5F6E
100
AcDbEntity
  8
0
100
AcDbLine
 10
1171.650714324252
 20
167.98247966746
 30
0.0
 11
1172.007916327059
 21
167.98247966746
 31
0.0
  0
LINE
  5
7C5B
330
5F6E
100
AcDbEntity
  8
虚线
 48
5.0
100
AcDbLine
 10
1175.55121632705
 20
167.98247966746
 30
0.0
 11
1175.55121632705
 21
168.0415346674652
 31
0.0
  0
LINE
  5
7C5C
330
5F6E
100
AcDbEntity
  8
虚线
 48
5.0
100
AcDbLine
 10
1171.597893926507
 20
168.0741794686053
 30
0.0
 11
1171.528751128167
 21
168.212465065242
 31
0.0
  0
LINE
  5
7C5D
330
5F6E
100
AcDbEntity
  8
0
100
AcDbLine
 10
1171.545073528733
 20
168.0477692697185
 30
0.0
 11
1171.475930730422
 21
168.1860548663624
 31
0.0
  0
LINE
  5
7C5E
330
5F6E
100
AcDbEntity
  8
虚线
 48
5.0
100
AcDbLine
 10
1172.007916327059
 20
167.98247966746
 30
0.0
 11
1172.007916327059
 21
168.0415346674652
 31
0.0
  0
LINE
  5
7C5F
330
5F6E
100
AcDbEntity
  8
虚线
 48
5.0
100
AcDbLine
 10
1175.55121632705
 20
168.0415346674652
 30
0.0
 11
1175.908418329857
 21
168.0415346674652
 31
0.0
  0
LINE
  5
7C60
330
5F6E
100
AcDbEntity
  8
0
100
AcDbLine
 10
1175.55121632705
 20
167.98247966746
 30
0.0
 11
1175.908418329857
 21
167.98247966746
 31
0.0
  0
LINE
  5
7C61
330
5F6E
100
AcDbEntity
  8
虚线
 48
5.0
100
AcDbLine
 10
1172.007916327059
 20
168.0415346674652
 30
0.0
 11
1175.55121632705
 21
168.0415346674652
 31
0.0
  0
LINE
  5
7C62
330
5F6E
100
AcDbEntity
  8
0
100
AcDbLine
 10
1172.007916327059
 20
167.98247966746
 30
0.0
 11
1175.55121632705
 21
167.9824796674673
 31
0.0
  0
LINE
  5
7C63
330
5F6E
100
AcDbEntity
  8
0
100
AcDbLine
 10
1157.780582577037
 20
178.3260017809824
 30
0.0
 11
1157.780582577037
 21
178.2669467809845
 31
0.0
  0
CIRCLE
  5
7C64
330
5F6E
100
AcDbEntity
  8
0
100
AcDbCircle
 10
1173.77956632704
 20
148.6299001772158
 30
0.0
 40
2.28346
  0
CIRCLE
  5
7C65
330
5F6E
100
AcDbEntity
  8
0
100
AcDbCircle
 10
1173.77956632704
 20
148.6299001772158
 30
0.0
 40
1.791335000000162
  0
CIRCLE
  5
7C66
330
5F6E
100
AcDbEntity
  8
0
100
AcDbCircle
 10
1173.77956632704
 20
148.6299001772158
 30
0.0
 40
2.16535
  0
LINE
  5
7C67
330
5F6E
100
AcDbEntity
  8
细实线
100
AcDbLine
 10
1188.385560737038
 20
152.7646163172202
 30
0.0
 11
1175.957225914538
 21
149.3169142183204
 31
0.0
  0
LINE
  5
7C68
330
5F6E
100
AcDbEntity
  8
细实线
100
AcDbLine
 10
1175.523515223718
 20
147.1558473228532
 30
0.0
 11
1188.385560737038
 21
137.5522057972147
 31
0.0
  0
LINE
  5
7C69
330
5F6E
100
AcDbEntity
  8
0
100
AcDbLine
 10
1189.778550077043
 20
178.3260017809824
 30
0.0
 11
1189.778550077043
 21
178.2669467809845
 31
0.0
  0
ARC
  5
7C6A
330
5F6E
100
AcDbEntity
  8
0
100
AcDbCircle
 10
1158.628977219504
 20
154.0796530572214
 30
0.0
 40
0.07874
100
AcDbArc
 50
90.0
 51
134.999999984372
  0
ARC
  5
7C6B
330
5F6E
100
AcDbEntity
  8
0
100
AcDbCircle
 10
1157.859322577034
 20
153.3099984147729
 30
0.0
 40
0.07874
100
AcDbArc
 50
134.999999984372
 51
180.0
  0
LINE
  5
7C6C
330
5F6E
100
AcDbEntity
  8
0
 48
5.0
100
AcDbLine
 10
1158.573299631552
 20
154.1353306451664
 30
0.0
 11
1157.803644989111
 21
153.3656760027178
 31
0.0
  0
POINT
  5
7C6D
330
5F6E
100
AcDbEntity
  8
标注
 48
5.0
100
AcDbPoint
 10
1157.780582577037
 20
153.3426135906728
 30
0.0
  0
POINT
  5
7C6E
330
5F6E
100
AcDbEntity
  8
标注
 48
5.0
100
AcDbPoint
 10
1158.596362043597
 20
154.1583930572186
 30
0.0
  0
ARC
  5
7C6F
330
5F6E
100
AcDbEntity
  8
0
100
AcDbCircle
 10
1158.628977219504
 20
136.2371690572207
 30
0.0
 40
0.07874
100
AcDbArc
 50
225.0000000156279
 51
270.0
  0
ARC
  5
7C70
330
5F6E
100
AcDbEntity
  8
0
100
AcDbCircle
 10
1157.859322577034
 20
137.0068236996693
 30
0.0
 40
0.07874
100
AcDbArc
 50
180.0
 51
225.0000000156279
  0
LINE
  5
7C71
330
5F6E
100
AcDbEntity
  8
0
 48
5.0
100
AcDbLine
 10
1158.573299631552
 20
136.1814914692685
 30
0.0
 11
1157.803644989111
 21
136.9511461117171
 31
0.0
  0
POINT
  5
7C72
330
5F6E
100
AcDbEntity
  8
标注
 48
5.0
100
AcDbPoint
 10
1157.780582577037
 20
136.9742085237621
 30
0.0
  0
POINT
  5
7C73
330
5F6E
100
AcDbEntity
  8
标注
 48
5.0
100
AcDbPoint
 10
1158.596362043597
 20
136.1584290572163
 30
0.0
  0
ARC
  5
7C74
330
5F6E
100
AcDbEntity
  8
0
100
AcDbCircle
 10
1188.930155434605
 20
154.0796530572214
 30
0.0
 40
0.07874
100
AcDbArc
 50
45.00000001562794
 51
90.0
  0
ARC
  5
7C75
330
5F6E
100
AcDbEntity
  8
0
100
AcDbCircle
 10
1189.699810077046
 20
153.3099984147729
 30
0.0
 40
0.07874
100
AcDbArc
 50
0.0
 51
45.00000001562794
  0
LINE
  5
7C76
330
5F6E
100
AcDbEntity
  8
0
 48
5.0
100
AcDbLine
 10
1188.985833022557
 20
154.1353306451664
 30
0.0
 11
1189.755487664998
 21
153.3656760027178
 31
0.0
  0
POINT
  5
7C77
330
5F6E
100
AcDbEntity
  8
标注
 48
5.0
100
AcDbPoint
 10
1189.778550077043
 20
153.3426135906728
 30
0.0
 50
180.0
  0
POINT
  5
7C78
330
5F6E
100
AcDbEntity
  8
标注
 48
5.0
100
AcDbPoint
 10
1188.962770610512
 20
154.1583930572186
 30
0.0
 50
180.0
  0
ARC
  5
7C79
330
5F6E
100
AcDbEntity
  8
0
100
AcDbCircle
 10
1188.930155434605
 20
136.2371690572207
 30
0.0
 40
0.07874
100
AcDbArc
 50
270.0
 51
314.9999999843721
  0
ARC
  5
7C7A
330
5F6E
100
AcDbEntity
  8
0
100
AcDbCircle
 10
1189.699810077046
 20
137.0068236996693
 30
0.0
 40
0.07874
100
AcDbArc
 50
314.9999999843721
 51
0.0
  0
LINE
  5
7C7B
330
5F6E
100
AcDbEntity
  8
0
 48
5.0
100
AcDbLine
 10
1188.985833022557
 20
136.1814914692685
 30
0.0
 11
1189.755487664998
 21
136.9511461117171
 31
0.0
  0
POINT
  5
7C7C
330
5F6E
100
AcDbEntity
  8
标注
 48
5.0
100
AcDbPoint
 10
1189.778550077043
 20
136.9742085237621
 30
0.0
 50
180.0
  0
POINT
  5
7C7D
330
5F6E
100
AcDbEntity
  8
标注
 48
5.0
100
AcDbPoint
 10
1188.962770610512
 20
136.1584290572163
 30
0.0
 50
180.0
  0
ARC
  5
7C7E
330
5F6E
100
AcDbEntity
  8
中心线
  6
Continuous
 62
     1
100
AcDbCircle
 10
1188.385836327058
 20
123.1838659703671
 30
0.0
 40
0.4724400000000001
100
AcDbArc
 50
0.0
 51
90.0
  0
LINE
  5
7C7F
330
5F6E
100
AcDbEntity
  8
中心线
  6
Continuous
 62
     1
100
AcDbLine
 10
1188.858276327041
 20
123.1838659703671
 30
0.0
 11
1188.858276327041
 21
107.9712979703644
 31
0.0
  0
LINE
  5
7C80
330
5F6E
100
AcDbEntity
  8
中心线
  6
Continuous
 62
     1
100
AcDbLine
 10
1159.173296327051
 20
123.6563059703648
 30
0.0
 11
1188.385836327058
 21
123.6563059703648
 31
0.0
  0
ARC
  5
7C81
330
5F6E
100
AcDbEntity
  8
中心线
  6
Continuous
 62
     1
100
AcDbCircle
 10
1188.385836327058
 20
107.9712979703644
 30
0.0
 40
0.4724400000000001
100
AcDbArc
 50
270.0
 51
0.0
  0
LINE
  5
7C82
330
5F6E
100
AcDbEntity
  8
中心线
  6
Continuous
 62
     1
100
AcDbLine
 10
1159.173296327051
 20
107.4988579703667
 30
0.0
 11
1188.385836327058
 21
107.4988579703667
 31
0.0
  0
ARC
  5
7C83
330
5F6E
100
AcDbEntity
  8
中心线
  6
Continuous
 62
     1
100
AcDbCircle
 10
1159.173296327051
 20
107.9712979703644
 30
0.0
 40
0.4724400000000001
100
AcDbArc
 50
180.0
 51
270.0
  0
LINE
  5
7C84
330
5F6E
100
AcDbEntity
  8
中心线
  6
Continuous
 62
     1
100
AcDbLine
 10
1158.700856327038
 20
107.9712979703644
 30
0.0
 11
1158.700856327038
 21
123.1838659703671
 31
0.0
  0
ARC
  5
7C85
330
5F6E
100
AcDbEntity
  8
中心线
  6
Continuous
 62
     1
100
AcDbCircle
 10
1159.173296327051
 20
123.1838659703671
 30
0.0
 40
0.4724400000000001
100
AcDbArc
 50
90.0
 51
180.0
  0
LINE
  5
7C86
330
5F6E
100
AcDbEntity
  8
0
100
AcDbLine
 10
1158.686171317054
 20
178.2669467809845
 30
0.0
 11
1188.872961337055
 21
178.2669467809845
 31
0.0
  0
LINE
  5
7C87
330
5F6E
100
AcDbEntity
  8
0
100
AcDbLine
 10
1171.423110332648
 20
168.2186996674662
 30
0.0
 11
1176.136022321432
 21
168.2186996674662
 31
0.0
  0
TEXT
  5
7C88
330
5F6E
100
AcDbEntity
  8
标注
100
AcDbText
 10
1169.937356232178
 20
164.8385318358178
 30
0.0
 40
0.7874015748031497
  1
FRONT VIEW
100
AcDbText
  0
TEXT
  5
7C89
330
5F6E
100
AcDbEntity
  8
标注
100
AcDbText
 10
1169.055828789019
 20
128.5211706130239
 30
0.0
 40
0.7874015748031497
  1
OVERHEAD VIEW
100
AcDbText
  0
TEXT
  5
7C8A
330
5F6E
100
AcDbEntity
  8
标注
100
AcDbText
 10
1174.876623713811
 20
100.361904073391
 30
0.0
 40
0.7874015748031497
  1
 CUTOUT
100
AcDbText
  0
LINE
  5
7C8B
330
5F6E
100
AcDbEntity
  8
中心线
  6
Continuous
 62
     1
100
AcDbLine
 10
1167.211217633245
 20
100.6151055406958
 30
0.0
 11
1173.428022637328
 21
100.6151055406958
 31
0.0
  0
DIMENSION
  5
7C8C
330
5F6E
100
AcDbEntity
  8
标注
100
AcDbDimension
  2
*D315
 10
1188.858276327058
 20
104.4361975752924
 30
0.0
 11
1173.779566327048
 21
104.4361975752924
 31
0.0
 70
    32
 71
     5
 42
30.15742000002024
  3
副本STANDARD
100
AcDbAlignedDimension
 13
1158.700856327038
 23
107.9712979703644
 33
0.0
 14
1188.858276327058
 24
107.9712979703644
 34
0.0
100
AcDbRotatedDimension
  0
DIMENSION
  5
7C9A
330
5F6E
100
AcDbEntity
  8
标注
100
AcDbDimension
  2
*D316
 10
1191.768898345164
 20
123.6563059703648
 30
0.0
 11
1191.768898345164
 21
115.5775819703659
 31
0.0
 70
    32
 71
     5
 42
16.15744799999811
  3
副本STANDARD
100
AcDbAlignedDimension
 13
1188.385836327058
 23
107.4988579703667
 33
0.0
 14
1188.385836327058
 24
123.6563059703648
 34
0.0
 50
90.0
100
AcDbRotatedDimension
  0
DIMENSION
  5
7CA8
330
5F6E
100
AcDbEntity
  8
标注
100
AcDbDimension
  2
*D317
 10
1159.173296327051
 20
107.9712979703644
 30
0.0
 11
1159.803115025615
 21
108.8493087688254
 31
0.0
 70
   164
  1
4-<>
 71
     5
 42
0.4724400000002334
  3
副本STANDARD
100
AcDbRadialDimension
 15
1158.781550104293
 25
107.7072251573842
 35
0.0
 40
0.0
1001
ACAD
1000
DSTYLE
1002
{
1070
   288
1070
     1
1002
}
1001
ACAD_DSTYLE_DIMRADIAL_EXTENSION
1070
   387
1070
     1
1070
   388
1040
3.141592653589793
1070
   390
1040
4.712388980384689
  0
DIMENSION
  5
7CB8
330
5F6E
100
AcDbEntity
  8
标注
100
AcDbDimension
  2
*D318
 10
1188.779260737038
 20
133.9744309879646
 30
0.0
 11
1173.779566327047
 21
133.9744309879646
 31
0.0
 70
    32
 71
     5
 42
29.99938881998196
  3
副本STANDARD
100
AcDbAlignedDimension
 13
1158.779871917056
 23
137.5522057972147
 33
0.0
 14
1188.779260737038
 24
137.5522057972147
 34
0.0
100
AcDbRotatedDimension
  0
DIMENSION
  5
7CC6
330
5F6E
100
AcDbEntity
  8
标注
100
AcDbDimension
  2
*D319
 10
1189.778550077043
 20
131.933538442364
 30
0.0
 11
1173.77956632704
 21
131.933538442364
 31
0.0
 70
    32
 71
     5
 42
31.99796750000678
  3
副本STANDARD
100
AcDbAlignedDimension
 13
1157.780582577037
 23
137.0068236996693
 33
0.0
 14
1189.778550077043
 24
137.0068236996693
 34
0.0
100
AcDbRotatedDimension
  0
DIMENSION
  5
7CD4
330
5F6E
100
AcDbEntity
  8
标注
100
AcDbDimension
  2
*D320
 10
1191.551826955998
 20
153.1583163172202
 30
0.0
 11
1191.551826955998
 21
145.158411057221
 31
0.0
 70
    32
 71
     5
 42
15.99981051999876
  3
副本STANDARD
100
AcDbAlignedDimension
 13
1188.385560737038
 23
137.1585057972214
 33
0.0
 14
1188.385560737038
 24
153.1583163172202
 34
0.0
 50
90.0
100
AcDbRotatedDimension
  0
DIMENSION
  5
7CE2
330
5F6E
100
AcDbEntity
  8
标注
100
AcDbDimension
  2
*D321
 10
1193.463540359579
 20
154.1583930572186
 30
0.0
 11
1193.463540359579
 21
145.1584110572176
 31
0.0
 70
    32
 71
     5
 42
17.99996400000236
  3
副本STANDARD
100
AcDbAlignedDimension
 13
1188.779260737038
 23
136.1584290572163
 33
0.0
 14
1188.779260737038
 24
154.1583930572186
 34
0.0
 50
90.0
100
AcDbRotatedDimension
  0
DIMENSION
  5
7CF0
330
5F6E
100
AcDbEntity
  8
标注
100
AcDbDimension
  2
*D322
 10
1192.345989401725
 20
168.3260017809824
 30
0.0
 11
1192.345989401725
 21
173.3260017809826
 31
0.0
 70
    32
 71
     5
 42
10.0
  3
副本STANDARD
100
AcDbAlignedDimension
 13
1189.778550077043
 23
178.3260017809824
 33
0.0
 14
1189.778550077043
 24
168.3260017809824
 34
0.0
 50
90.0
100
AcDbRotatedDimension
  0
DIMENSION
  5
7CFE
330
5F6E
100
AcDbEntity
  8
标注
100
AcDbDimension
  2
*D323
 10
1159.173571917042
 20
152.7646163172202
 30
0.0
 11
1157.970201222599
 21
154.9044817703707
 31
0.0
 70
   164
  1
4-<>
 71
     5
 42
0.3937000000001944
  3
副本STANDARD
100
AcDbRadialDimension
 15
1158.896726869599
 25
153.0445386452081
 35
0.0
 40
0.0
1001
ACAD
1000
DSTYLE
1002
{
1070
   288
1070
     1
1002
}
1001
ACAD_DSTYLE_DIMRADIAL_EXTENSION
1070
   387
1070
     1
1070
   388
1040
1.570796326794896
1070
   390
1040
3.141592653589793
  0
DIMENSION
  5
7D0E
330
5F6E
100
AcDbEntity
  8
标注
100
AcDbDimension
  2
*D324
 10
1159.178296317044
 20
168.7679381501892
 30
0.0
 11
1159.844581208625
 21
169.7808916533022
 31
0.0
 70
   164
 71
     5
 42
0.3937000000000807
  3
副本STANDARD
100
AcDbRadialDimension
 15
1158.849437583003
 25
168.55148579274
 35
0.0
 40
0.0
1001
ACAD
1000
DSTYLE
1002
{
1070
   288
1070
     1
1002
}
1001
ACAD_DSTYLE_DIMRADIAL_EXTENSION
1070
   387
1070
     1
1070
   388
1040
3.141592653589793
1070
   390
1040
4.695687189247648
  0
ENDSEC
  0
SECTION
  2
OBJECTS
  0
DICTIONARY
  5
5F06
330
0
100
AcDbDictionary
281
     1
  3
ACAD_COLOR
350
5F64
  3
ACAD_GROUP
350
5F07
  3
ACAD_LAYOUT
350
5F63
  3
ACAD_MATERIAL
350
5F0A
  3
ACAD_MLEADERSTYLE
350
5F67
  3
ACAD_MLINESTYLE
350
5F60
  3
ACAD_PLOTSETTINGS
350
5F62
  3
ACAD_PLOTSTYLENAME
350
5F08
  3
ACAD_SCALELIST
350
5F34
  3
ACAD_TABLESTYLE
350
5F65
  3
ACAD_VISUALSTYLE
350
5F23
  3
ACDB_RECOMPOSE_DATA
350
7D63
  3
AcDbVariableDictionary
350
6102
  3
DWGPROPS
350
7D64
  3
lxx_dict
350
60F2
  0
DICTIONARY
  5
61B7
330
5EFC
100
AcDbDictionary
280
     1
281
     1
  3
ACAD_LAYERSTATES
360
61B8
  0
DICTIONARY
  5
60F4
330
5F56
100
AcDbDictionary
280
     1
281
     1
  3
ADSK_XREC_LAYER_RECONCILED
360
60F5
  0
DICTIONARY
  5
60F6
330
5F72
100
AcDbDictionary
280
     1
281
     1
  3
ADSK_XREC_LAYER_RECONCILED
360
60F7
  0
DICTIONARY
  5
60F8
330
5F7D
100
AcDbDictionary
280
     1
281
     1
  3
ADSK_XREC_LAYER_RECONCILED
360
60F9
  0
DICTIONARY
  5
60FA
330
5F7E
100
AcDbDictionary
280
     1
281
     1
  3
ADSK_XREC_LAYER_RECONCILED
360
60FB
  0
DICTIONARY
  5
7BC2
330
7BC1
100
AcDbDictionary
280
     1
281
     1
  0
DICTIONARY
  5
654F
330
5F6E
100
AcDbDictionary
280
     1
281
     1
  3
ACAD_SORTENTS
360
6550
  0
DICTIONARY
  5
5F64
102
{ACAD_REACTORS
330
5F06
102
}
330
5F06
100
AcDbDictionary
281
     1
  0
DICTIONARY
  5
5F07
102
{ACAD_REACTORS
330
5F06
102
}
330
5F06
100
AcDbDictionary
281
     1
  0
DICTIONARY
  5
5F63
102
{ACAD_REACTORS
330
5F06
102
}
330
5F06
100
AcDbDictionary
281
     1
  3
Model
350
5F71
  3
布局1
350
5F6D
  0
DICTIONARY
  5
5F0A
102
{ACAD_REACTORS
330
5F06
102
}
330
5F06
100
AcDbDictionary
281
     1
  3
ByBlock
350
5F13
  3
ByLayer
350
5F0B
  3
Global
350
5F1B
  0
DICTIONARY
  5
5F67
102
{ACAD_REACTORS
330
5F06
102
}
330
5F06
100
AcDbDictionary
281
     1
  3
Standard
350
5F68
  0
DICTIONARY
  5
5F60
102
{ACAD_REACTORS
330
5F06
102
}
330
5F06
100
AcDbDictionary
281
     1
  3
Standard
350
5F61
  0
DICTIONARY
  5
5F62
102
{ACAD_REACTORS
330
5F06
102
}
330
5F06
100
AcDbDictionary
281
     1
  0
ACDBDICTIONARYWDFLT
  5
5F08
102
{ACAD_REACTORS
330
5F06
102
}
330
5F06
100
AcDbDictionary
281
     1
  3
Normal
350
5F09
100
AcDbDictionaryWithDefault
340
5F09
  0
DICTIONARY
  5
5F34
102
{ACAD_REACTORS
330
5F06
102
}
330
5F06
100
AcDbDictionary
281
     1
  3
A0
350
5F35
  3
A1
350
5F36
  3
A2
350
5F37
  3
A3
350
5F38
  3
A4
350
5F39
  3
A5
350
5F3A
  3
A6
350
5F3B
  3
A7
350
5F3C
  3
A8
350
5F3D
  3
A9
350
5F3E
  3
B0
350
5F3F
  3
B1
350
5F40
  3
B2
350
5F41
  3
B3
350
5F42
  3
B4
350
5F43
  3
B5
350
5F44
  3
B6
350
5F45
  3
B7
350
5F46
  3
B8
350
5F47
  3
B9
350
5F48
  3
C0
350
5F49
  3
C1
350
5F4A
  3
C2
350
5F4B
  3
C3
350
5F4C
  3
C4
350
5F4D
  3
C5
350
5F4E
  3
C6
350
5F4F
  3
C7
350
5F50
  3
C8
350
5F51
  3
C9
350
5F52
  3
D0
350
5F53
  3
D1
350
5F54
  3
D2
350
5F55
  0
DICTIONARY
  5
5F65
102
{ACAD_REACTORS
330
5F06
102
}
330
5F06
100
AcDbDictionary
281
     1
  3
Standard
350
5F66
  0
DICTIONARY
  5
5F23
102
{ACAD_REACTORS
330
5F06
102
}
330
5F06
100
AcDbDictionary
281
     1
  3
2dWireframe
350
5F29
  3
3D Hidden
350
5F2B
  3
3dWireframe
350
5F2A
  3
Basic
350
5F28
  3
Brighten
350
5F2F
  3
ColorChange
350
5F33
  3
Conceptual
350
5F2C
  3
Dim
350
5F2E
  3
Facepattern
350
5F32
  3
Flat
350
5F24
  3
FlatWithEdges
350
5F25
  3
Gouraud
350
5F26
  3
GouraudWithEdges
350
5F27
  3
Linepattern
350
5F31
  3
Realistic
350
5F2D
  3
Thicken
350
5F30
  0
XRECORD
  5
7D63
102
{ACAD_REACTORS
330
5F06
102
}
330
5F06
100
AcDbXrecord
280
     1
 90
        1
330
5F66
  0
DICTIONARY
  5
6102
102
{ACAD_REACTORS
330
5F06
102
}
330
5F06
100
AcDbDictionary
281
     1
  3
CANNOSCALE
350
6105
  3
CMLEADERSTYLE
350
6104
  3
CTABLESTYLE
350
6103
  3
DIMASSOC
350
6108
  3
INDEXCTL
350
6107
  3
SORTENTS
350
6106
  0
XRECORD
  5
7D64
102
{ACAD_REACTORS
330
5F06
102
}
330
5F06
100
AcDbXrecord
280
     1
  1
DWGPROPS COOKIE
  2

  3

  4

  6

  7

  8
Administrator
  9

300
=
301
=
302
=
303
=
304
=
305
=
306
=
307
=
308
=
309
=
 40
0.5782699537037037
 41
2455434.724808658
 42
2458562.592449352
  1

 90
        0
  0
DICTIONARY
  5
60F2
102
{ACAD_REACTORS
330
5F06
102
}
330
5F06
100
AcDbDictionary
281
     1
  3
lxx_dimth
350
60F3
  0
DICTIONARY
  5
61B8
102
{ACAD_REACTORS
330
61B7
102
}
330
61B7
100
AcDbDictionary
281
     1
  0
XRECORD
  5
60F5
102
{ACAD_REACTORS
330
60F4
102
}
330
60F4
100
AcDbXrecord
280
     1
290
     1
  0
XRECORD
  5
60F7
102
{ACAD_REACTORS
330
60F6
102
}
330
60F6
100
AcDbXrecord
280
     1
290
     1
  0
XRECORD
  5
60F9
102
{ACAD_REACTORS
330
60F8
102
}
330
60F8
100
AcDbXrecord
280
     1
290
     1
  0
XRECORD
  5
60FB
102
{ACAD_REACTORS
330
60FA
102
}
330
60FA
100
AcDbXrecord
280
     1
290
     1
  0
SORTENTSTABLE
  5
6550
102
{ACAD_REACTORS
330
654F
102
}
330
654F
100
AcDbSortentsTable
330
5F6E
  0
LAYOUT
  5
5F71
102
{ACAD_XDICTIONARY
360
7D6B
102
}
102
{ACAD_REACTORS
330
5F63
102
}
330
5F63
100
AcDbPlotSettings
  1

  2
\\192.168.1.64\Canon LBP2900
  4
A4
  6

 40
5.873749732971191
 41
6.805061340332031
 42
5.873748779296875
 43
4.857757568359375
 44
209.9733276367187
 45
296.9259948730469
 46
0.0
 47
0.0
 48
0.0
 49
0.0
140
0.0
141
0.0
142
1.0
143
22.50920977447151
 70
 11952
 72
     0
 73
     1
 74
     0
  7

 75
     0
147
0.0444262597407633
148
-26332.96073918523
149
-1147.872668404557
100
AcDbLayout
  1
Model
 70
     1
 71
     0
 10
0.0
 20
0.0
 11
12.0
 21
9.0
 12
0.0
 22
0.0
 32
0.0
 14
0.0
 24
0.0
 34
0.0
 15
0.0
 25
0.0
 35
0.0
146
0.0
 13
0.0
 23
0.0
 33
0.0
 16
1.0
 26
0.0
 36
0.0
 17
0.0
 27
1.0
 37
0.0
 76
     0
330
5F6E
331
5F73
1001
ACAD_PSEXT
1000
\\192.168.1.64\Canon LBP2900
1000
Canon LBP2900
1000
\\192.168.1.64
1000

1070
     0
  0
LAYOUT
  5
5F6D
102
{ACAD_XDICTIONARY
360
7D69
102
}
102
{ACAD_REACTORS
330
5F63
102
}
330
5F63
100
AcDbPlotSettings
  1

  2
\\192.168.1.64\Canon LBP2900
  4

  6

 40
0.0
 41
0.0
 42
0.0
 43
0.0
 44
0.0
 45
0.0
 46
0.0
 47
0.0
 48
0.0
 49
0.0
140
0.0
141
0.0
142
1.0
143
1.0
 70
   688
 72
     0
 73
     0
 74
     5
  7

 75
    16
147
1.0
148
0.0
149
0.0
100
AcDbLayout
  1
布局1
 70
     1
 71
     1
 10
0.0
 20
0.0
 11
12.0
 21
9.0
 12
0.0
 22
0.0
 32
0.0
 14
1.000000000000000E+20
 24
1.000000000000000E+20
 34
1.000000000000000E+20
 15
-1.000000000000000E+20
 25
-1.000000000000000E+20
 35
-1.000000000000000E+20
146
0.0
 13
0.0
 23
0.0
 33
0.0
 16
1.0
 26
0.0
 36
0.0
 17
0.0
 27
1.0
 37
0.0
 76
     0
330
5F6A
  0
MATERIAL
  5
5F13
102
{ACAD_XDICTIONARY
360
5F14
102
}
102
{ACAD_REACTORS
330
5F0A
102
}
330
5F0A
100
AcDbMaterial
  1
ByBlock
 72
     0
 43
0.0208333333333333
 43
0.0
 43
0.0
 43
0.0
 43
0.0
 43
0.0208333333333333
 43
0.0
 43
0.0
 43
0.0
 43
0.0
 43
1.0
 43
0.0
 43
0.0
 43
0.0
 43
0.0
 43
1.0
 77
     0
 47
0.0208333333333333
 47
0.0
 47
0.0
 47
0.0
 47
0.0
 47
0.0208333333333333
 47
0.0
 47
0.0
 47
0.0
 47
0.0
 47
1.0
 47
0.0
 47
0.0
 47
0.0
 47
0.0
 47
1.0
171
     0
 49
0.0208333333333333
 49
0.0
 49
0.0
 49
0.0
 49
0.0
 49
0.0208333333333333
 49
0.0
 49
0.0
 49
0.0
 49
0.0
 49
1.0
 49
0.0
 49
0.0
 49
0.0
 49
0.0
 49
1.0
175
     0
142
0.0208333333333333
142
0.0
142
0.0
142
0.0
142
0.0
142
0.0208333333333333
142
0.0
142
0.0
142
0.0
142
0.0
142
1.0
142
0.0
142
0.0
142
0.0
142
0.0
142
1.0
179
     0
144
0.0208333333333333
144
0.0
144
0.0
144
0.0
144
0.0
144
0.0208333333333333
144
0.0
144
0.0
144
0.0
144
0.0
144
1.0
144
0.0
144
0.0
144
0.0
144
0.0
144
1.0
147
0.0208333333333333
147
0.0
147
0.0
147
0.0
147
0.0
147
0.0208333333333333
147
0.0
147
0.0
147
0.0
147
0.0
147
1.0
147
0.0
147
0.0
147
0.0
147
0.0
147
1.0
  0
MATERIAL
  5
5F0B
102
{ACAD_XDICTIONARY
360
5F0C
102
}
102
{ACAD_REACTORS
330
5F0A
102
}
330
5F0A
100
AcDbMaterial
  1
ByLayer
 72
     0
 43
0.0208333333333333
 43
0.0
 43
0.0
 43
0.0
 43
0.0
 43
0.0208333333333333
 43
0.0
 43
0.0
 43
0.0
 43
0.0
 43
1.0
 43
0.0
 43
0.0
 43
0.0
 43
0.0
 43
1.0
 77
     0
 47
0.0208333333333333
 47
0.0
 47
0.0
 47
0.0
 47
0.0
 47
0.0208333333333333
 47
0.0
 47
0.0
 47
0.0
 47
0.0
 47
1.0
 47
0.0
 47
0.0
 47
0.0
 47
0.0
 47
1.0
171
     0
 49
0.0208333333333333
 49
0.0
 49
0.0
 49
0.0
 49
0.0
 49
0.0208333333333333
 49
0.0
 49
0.0
 49
0.0
 49
0.0
 49
1.0
 49
0.0
 49
0.0
 49
0.0
 49
0.0
 49
1.0
175
     0
142
0.0208333333333333
142
0.0
142
0.0
142
0.0
142
0.0
142
0.0208333333333333
142
0.0
142
0.0
142
0.0
142
0.0
142
1.0
142
0.0
142
0.0
142
0.0
142
0.0
142
1.0
179
     0
144
0.0208333333333333
144
0.0
144
0.0
144
0.0
144
0.0
144
0.0208333333333333
144
0.0
144
0.0
144
0.0
144
0.0
144
1.0
144
0.0
144
0.0
144
0.0
144
0.0
144
1.0
147
0.0208333333333333
147
0.0
147
0.0
147
0.0
147
0.0
147
0.0208333333333333
147
0.0
147
0.0
147
0.0
147
0.0
147
1.0
147
0.0
147
0.0
147
0.0
147
0.0
147
1.0
  0
MATERIAL
  5
5F1B
102
{ACAD_XDICTIONARY
360
5F1C
102
}
102
{ACAD_REACTORS
330
5F0A
102
}
330
5F0A
100
AcDbMaterial
  1
Global
 72
     0
 43
0.0208333333333333
 43
0.0
 43
0.0
 43
0.0
 43
0.0
 43
0.0208333333333333
 43
0.0
 43
0.0
 43
0.0
 43
0.0
 43
1.0
 43
0.0
 43
0.0
 43
0.0
 43
0.0
 43
1.0
 77
     0
 47
0.0208333333333333
 47
0.0
 47
0.0
 47
0.0
 47
0.0
 47
0.0208333333333333
 47
0.0
 47
0.0
 47
0.0
 47
0.0
 47
1.0
 47
0.0
 47
0.0
 47
0.0
 47
0.0
 47
1.0
171
     0
 49
0.0208333333333333
 49
0.0
 49
0.0
 49
0.0
 49
0.0
 49
0.0208333333333333
 49
0.0
 49
0.0
 49
0.0
 49
0.0
 49
1.0
 49
0.0
 49
0.0
 49
0.0
 49
0.0
 49
1.0
175
     0
142
0.0208333333333333
142
0.0
142
0.0
142
0.0
142
0.0
142
0.0208333333333333
142
0.0
142
0.0
142
0.0
142
0.0
142
1.0
142
0.0
142
0.0
142
0.0
142
0.0
142
1.0
179
     0
144
0.0208333333333333
144
0.0
144
0.0
144
0.0
144
0.0
144
0.0208333333333333
144
0.0
144
0.0
144
0.0
144
0.0
144
1.0
144
0.0
144
0.0
144
0.0
144
0.0
144
1.0
147
0.0208333333333333
147
0.0
147
0.0
147
0.0
147
0.0
147
0.0208333333333333
147
0.0
147
0.0
147
0.0
147
0.0
147
1.0
147
0.0
147
0.0
147
0.0
147
0.0
147
1.0
  0
MLEADERSTYLE
  5
5F68
102
{ACAD_REACTORS
330
5F67
102
}
330
5F67
100
AcDbMLeaderStyle
170
     2
171
     1
172
     0
 90
        2
 40
0.0
 41
0.0
173
     1
 91
-1056964608
340
5F5C
 92
       -2
290
     1
 42
0.09
291
     1
 43
0.36
  3
Standard
 44
0.18
300

342
5F57
174
     1
178
     6
175
     1
176
     0
 93
-1056964608
 45
0.18
292
     0
297
     0
 46
0.18
 94
-1056964608
 47
1.0
 49
1.0
140
1.0
293
     1
141
0.0
294
     1
177
     0
142
1.0
295
     0
296
     0
143
0.125
1001
ACAD_MLEADERVER
1070
     2
  0
MLINESTYLE
  5
5F61
102
{ACAD_REACTORS
330
5F60
102
}
330
5F60
100
AcDbMlineStyle
  2
STANDARD
 70
     0
  3

 62
   256
 51
90.0
 52
90.0
 71
     2
 49
0.5
 62
   256
  6
BYLAYER
 49
-0.5
 62
   256
  6
BYLAYER
  0
ACDBPLACEHOLDER
  5
5F09
102
{ACAD_REACTORS
330
5F08
102
}
330
5F08
  0
SCALE
  5
5F35
102
{ACAD_REACTORS
330
5F34
102
}
330
5F34
100
AcDbScale
 70
     0
300
1:1
140
1.0
141
1.0
290
     1
  0
SCALE
  5
5F36
102
{ACAD_REACTORS
330
5F34
102
}
330
5F34
100
AcDbScale
 70
     0
300
1:2
140
1.0
141
2.0
290
     0
  0
SCALE
  5
5F37
102
{ACAD_REACTORS
330
5F34
102
}
330
5F34
100
AcDbScale
 70
     0
300
1:4
140
1.0
141
4.0
290
     0
  0
SCALE
  5
5F38
102
{ACAD_REACTORS
330
5F34
102
}
330
5F34
100
AcDbScale
 70
     0
300
1:5
140
1.0
141
5.0
290
     0
  0
SCALE
  5
5F39
102
{ACAD_REACTORS
330
5F34
102
}
330
5F34
100
AcDbScale
 70
     0
300
1:8
140
1.0
141
8.0
290
     0
  0
SCALE
  5
5F3A
102
{ACAD_REACTORS
330
5F34
102
}
330
5F34
100
AcDbScale
 70
     0
300
1:10
140
1.0
141
10.0
290
     0
  0
SCALE
  5
5F3B
102
{ACAD_REACTORS
330
5F34
102
}
330
5F34
100
AcDbScale
 70
     0
300
1:16
140
1.0
141
16.0
290
     0
  0
SCALE
  5
5F3C
102
{ACAD_REACTORS
330
5F34
102
}
330
5F34
100
AcDbScale
 70
     0
300
1:20
140
1.0
141
20.0
290
     0
  0
SCALE
  5
5F3D
102
{ACAD_REACTORS
330
5F34
102
}
330
5F34
100
AcDbScale
 70
     0
300
1:30
140
1.0
141
30.0
290
     0
  0
SCALE
  5
5F3E
102
{ACAD_REACTORS
330
5F34
102
}
330
5F34
100
AcDbScale
 70
     0
300
1:40
140
1.0
141
40.0
290
     0
  0
SCALE
  5
5F3F
102
{ACAD_REACTORS
330
5F34
102
}
330
5F34
100
AcDbScale
 70
     0
300
1:50
140
1.0
141
50.0
290
     0
  0
SCALE
  5
5F40
102
{ACAD_REACTORS
330
5F34
102
}
330
5F34
100
AcDbScale
 70
     0
300
1:100
140
1.0
141
100.0
290
     0
  0
SCALE
  5
5F41
102
{ACAD_REACTORS
330
5F34
102
}
330
5F34
100
AcDbScale
 70
     0
300
2:1
140
2.0
141
1.0
290
     0
  0
SCALE
  5
5F42
102
{ACAD_REACTORS
330
5F34
102
}
330
5F34
100
AcDbScale
 70
     0
300
4:1
140
4.0
141
1.0
290
     0
  0
SCALE
  5
5F43
102
{ACAD_REACTORS
330
5F34
102
}
330
5F34
100
AcDbScale
 70
     0
300
8:1
140
8.0
141
1.0
290
     0
  0
SCALE
  5
5F44
102
{ACAD_REACTORS
330
5F34
102
}
330
5F34
100
AcDbScale
 70
     0
300
10:1
140
10.0
141
1.0
290
     0
  0
SCALE
  5
5F45
102
{ACAD_REACTORS
330
5F34
102
}
330
5F34
100
AcDbScale
 70
     0
300
100:1
140
100.0
141
1.0
290
     0
  0
SCALE
  5
5F46
102
{ACAD_REACTORS
330
5F34
102
}
330
5F34
100
AcDbScale
 70
     0
300
1/128" = 1'-0"
140
0.0078125
141
12.0
290
     0
  0
SCALE
  5
5F47
102
{ACAD_REACTORS
330
5F34
102
}
330
5F34
100
AcDbScale
 70
     0
300
1/64" = 1'-0"
140
0.015625
141
12.0
290
     0
  0
SCALE
  5
5F48
102
{ACAD_REACTORS
330
5F34
102
}
330
5F34
100
AcDbScale
 70
     0
300
1/32" = 1'-0"
140
0.03125
141
12.0
290
     0
  0
SCALE
  5
5F49
102
{ACAD_REACTORS
330
5F34
102
}
330
5F34
100
AcDbScale
 70
     0
300
1/16" = 1'-0"
140
0.0625
141
12.0
290
     0
  0
SCALE
  5
5F4A
102
{ACAD_REACTORS
330
5F34
102
}
330
5F34
100
AcDbScale
 70
     0
300
3/32" = 1'-0"
140
0.09375
141
12.0
290
     0
  0
SCALE
  5
5F4B
102
{ACAD_REACTORS
330
5F34
102
}
330
5F34
100
AcDbScale
 70
     0
300
1/8" = 1'-0"
140
0.125
141
12.0
290
     0
  0
SCALE
  5
5F4C
102
{ACAD_REACTORS
330
5F34
102
}
330
5F34
100
AcDbScale
 70
     0
300
3/16" = 1'-0"
140
0.1875
141
12.0
290
     0
  0
SCALE
  5
5F4D
102
{ACAD_REACTORS
330
5F34
102
}
330
5F34
100
AcDbScale
 70
     0
300
1/4" = 1'-0"
140
0.25
141
12.0
290
     0
  0
SCALE
  5
5F4E
102
{ACAD_REACTORS
330
5F34
102
}
330
5F34
100
AcDbScale
 70
     0
300
3/8" = 1'-0"
140
0.375
141
12.0
290
     0
  0
SCALE
  5
5F4F
102
{ACAD_REACTORS
330
5F34
102
}
330
5F34
100
AcDbScale
 70
     0
300
1/2" = 1'-0"
140
0.5
141
12.0
290
     0
  0
SCALE
  5
5F50
102
{ACAD_REACTORS
330
5F34
102
}
330
5F34
100
AcDbScale
 70
     0
300
3/4" = 1'-0"
140
0.75
141
12.0
290
     0
  0
SCALE
  5
5F51
102
{ACAD_REACTORS
330
5F34
102
}
330
5F34
100
AcDbScale
 70
     0
300
1" = 1'-0"
140
1.0
141
12.0
290
     0
  0
SCALE
  5
5F52
102
{ACAD_REACTORS
330
5F34
102
}
330
5F34
100
AcDbScale
 70
     0
300
1-1/2" = 1'-0"
140
1.5
141
12.0
290
     0
  0
SCALE
  5
5F53
102
{ACAD_REACTORS
330
5F34
102
}
330
5F34
100
AcDbScale
 70
     0
300
3" = 1'-0"
140
3.0
141
12.0
290
     0
  0
SCALE
  5
5F54
102
{ACAD_REACTORS
330
5F34
102
}
330
5F34
100
AcDbScale
 70
     0
300
6" = 1'-0"
140
6.0
141
12.0
290
     0
  0
SCALE
  5
5F55
102
{ACAD_REACTORS
330
5F34
102
}
330
5F34
100
AcDbScale
 70
     0
300
1'-0" = 1'-0"
140
12.0
141
12.0
290
     0
  0
TABLESTYLE
  5
5F66
102
{ACAD_XDICTIONARY
360
7D61
102
}
102
{ACAD_REACTORS
330
5F65
102
}
330
5F65
100
AcDbTableStyle
  3
Standard
 70
     0
 71
     0
 40
0.06
 41
0.06
280
     0
281
     0
  7
STANDARD
140
0.18
170
     2
 62
     0
 63
     7
283
     0
274
    -2
284
     1
 64
     0
275
    -2
285
     1
 65
     0
276
    -2
286
     1
 66
     0
277
    -2
287
     1
 67
     0
278
    -2
288
     1
 68
     0
279
    -2
289
     1
 69
     0
  7
STANDARD
140
0.25
170
     5
 62
     0
 63
     7
283
     0
274
    -2
284
     1
 64
     0
275
    -2
285
     1
 65
     0
276
    -2
286
     1
 66
     0
277
    -2
287
     1
 67
     0
278
    -2
288
     1
 68
     0
279
    -2
289
     1
 69
     0
  7
STANDARD
140
0.18
170
     5
 62
     0
 63
     7
283
     0
274
    -2
284
     1
 64
     0
275
    -2
285
     1
 65
     0
276
    -2
286
     1
 66
     0
277
    -2
287
     1
 67
     0
278
    -2
288
     1
 68
     0
279
    -2
289
     1
 69
     0
  0
VISUALSTYLE
  5
5F29
102
{ACAD_REACTORS
330
5F23
102
}
330
5F23
100
AcDbVisualStyle
  2
2dWireframe
 70
     4
 71
     0
 72
     2
 73
     0
 90
        0
 40
-0.6
 41
-30.0
 62
     5
 63
     7
 74
     1
 91
        4
 64
     7
 65
   257
 75
     1
175
     1
 42
1.0
 92
        0
 66
   257
 43
1.0
 76
     1
 77
     6
 78
     2
 67
     7
 79
     5
170
     0
171
     0
290
     0
174
     0
 93
        1
 44
0.0
173
     0
291
     0
 45
0.0
1001
ACAD
1000
AcDbSavedByObjectVersion
1070
     0
  0
VISUALSTYLE
  5
5F2B
102
{ACAD_REACTORS
330
5F23
102
}
330
5F23
100
AcDbVisualStyle
  2
3D Hidden
 70
     6
 71
     1
 72
     2
 73
     2
 90
        0
 40
-0.6
 41
-30.0
 62
     5
 63
     7
 74
     2
 91
        2
 64
     7
 65
   257
 75
     2
175
     1
 42
40.0
 92
        0
 66
   257
 43
1.0
 76
     1
 77
     6
 78
     2
 67
     7
 79
     3
170
     0
171
     0
290
     0
174
     0
 93
        1
 44
0.0
173
     0
291
     0
 45
0.0
1001
ACAD
1000
AcDbSavedByObjectVersion
1070
     0
  0
VISUALSTYLE
  5
5F2A
102
{ACAD_REACTORS
330
5F23
102
}
330
5F23
100
AcDbVisualStyle
  2
3dWireframe
 70
     5
 71
     0
 72
     2
 73
     0
 90
        0
 40
-0.6
 41
-30.0
 62
     5
 63
     7
 74
     1
 91
        4
 64
     7
 65
   257
 75
     1
175
     1
 42
1.0
 92
        0
 66
   257
 43
1.0
 76
     1
 77
     6
 78
     2
 67
     7
 79
     5
170
     0
171
     0
290
     0
174
     0
 93
        1
 44
0.0
173
     0
291
     0
 45
0.0
1001
ACAD
1000
AcDbSavedByObjectVersion
1070
     0
  0
VISUALSTYLE
  5
5F28
102
{ACAD_REACTORS
330
5F23
102
}
330
5F23
100
AcDbVisualStyle
  2
Basic
 70
     7
 71
     1
 72
     0
 73
     1
 90
        0
 40
-0.6
 41
-30.0
 62
     5
 63
     7
 74
     0
 91
        4
 64
     7
 65
   257
 75
     1
175
     1
 42
1.0
 92
        8
 66
     7
 43
1.0
 76
     1
 77
     6
 78
     2
 67
     7
 79
     5
170
     0
171
     0
290
     0
174
     0
 93
        1
 44
0.0
173
     0
291
     1
 45
0.0
1001
ACAD
1000
AcDbSavedByObjectVersion
1070
     0
  0
VISUALSTYLE
  5
5F2F
102
{ACAD_REACTORS
330
5F23
102
}
330
5F23
100
AcDbVisualStyle
  2
Brighten
 70
    12
 71
     2
 72
     2
 73
     0
 90
        0
 40
-0.6
 41
-30.0
 62
     5
 63
     7
 74
     1
 91
        4
 64
     7
 65
   257
 75
     1
175
     1
 42
1.0
 92
        8
 66
     7
 43
1.0
 76
     1
 77
     6
 78
     2
 67
     7
 79
     5
170
     0
171
     0
290
     0
174
     0
 93
        1
 44
50.0
173
     0
291
     1
 45
0.0
1001
ACAD
1000
AcDbSavedByObjectVersion
1070
     0
  0
VISUALSTYLE
  5
5F33
102
{ACAD_REACTORS
330
5F23
102
}
330
5F23
100
AcDbVisualStyle
  2
ColorChange
 70
    16
 71
     2
 72
     2
 73
     3
 90
        0
 40
-0.6
 41
-30.0
 62
     5
 63
     8
 74
     1
 91
        4
 64
     7
 65
   257
 75
     1
175
     1
 42
1.0
 92
        8
 66
     8
 43
1.0
 76
     1
 77
     6
 78
     2
 67
     7
 79
     5
170
     0
171
     0
290
     0
174
     0
 93
        1
 44
0.0
173
     0
291
     1
 45
0.0
1001
ACAD
1000
AcDbSavedByObjectVersion
1070
     0
  0
VISUALSTYLE
  5
5F2C
102
{ACAD_REACTORS
330
5F23
102
}
330
5F23
100
AcDbVisualStyle
  2
Conceptual
 70
     9
 71
     3
 72
     2
 73
     0
 90
        0
 40
-0.6
 41
-30.0
 62
     5
 63
     7
 74
     2
 91
        2
 64
     7
 65
   257
 75
     1
175
     1
 42
40.0
 92
        8
 66
     7
 43
1.0
 76
     1
 77
     6
 78
     2
 67
     7
 79
     3
170
     0
171
     0
290
     0
174
     0
 93
        1
 44
0.0
173
     0
291
     0
 45
0.0
1001
ACAD
1000
AcDbSavedByObjectVersion
1070
     0
  0
VISUALSTYLE
  5
5F2E
102
{ACAD_REACTORS
330
5F23
102
}
330
5F23
100
AcDbVisualStyle
  2
Dim
 70
    11
 71
     2
 72
     2
 73
     0
 90
        0
 40
-0.6
 41
-30.0
 62
     5
 63
     7
 74
     1
 91
        4
 64
     7
 65
   257
 75
     1
175
     1
 42
1.0
 92
        8
 66
     7
 43
1.0
 76
     1
 77
     6
 78
     2
 67
     7
 79
     5
170
     0
171
     0
290
     0
174
     0
 93
        1
 44
-50.0
173
     0
291
     1
 45
0.0
1001
ACAD
1000
AcDbSavedByObjectVersion
1070
     0
  0
VISUALSTYLE
  5
5F32
102
{ACAD_REACTORS
330
5F23
102
}
330
5F23
100
AcDbVisualStyle
  2
Facepattern
 70
    15
 71
     2
 72
     2
 73
     0
 90
        0
 40
-0.6
 41
-30.0
 62
     5
 63
     7
 74
     1
 91
        4
 64
     7
 65
   257
 75
     1
175
     1
 42
1.0
 92
        8
 66
     7
 43
1.0
 76
     1
 77
     6
 78
     2
 67
     7
 79
     5
170
     0
171
     0
290
     0
174
     0
 93
        1
 44
0.0
173
     0
291
     1
 45
0.0
1001
ACAD
1000
AcDbSavedByObjectVersion
1070
     0
  0
VISUALSTYLE
  5
5F24
102
{ACAD_REACTORS
330
5F23
102
}
330
5F23
100
AcDbVisualStyle
  2
Flat
 70
     0
 71
     2
 72
     1
 73
     1
 90
        2
 40
-0.6
 41
30.0
 62
     5
 63
     7
 74
     0
 91
        4
 64
     7
 65
   257
 75
     1
175
     1
 42
1.0
 92
        8
 66
     7
 43
1.0
 76
     1
 77
     6
 78
     2
 67
     7
 79
     5
170
     0
171
     0
290
     0
174
     0
 93
       13
 44
0.0
173
     0
291
     1
 45
0.0
1001
ACAD
1000
AcDbSavedByObjectVersion
1070
     0
  0
VISUALSTYLE
  5
5F25
102
{ACAD_REACTORS
330
5F23
102
}
330
5F23
100
AcDbVisualStyle
  2
FlatWithEdges
 70
     1
 71
     2
 72
     1
 73
     1
 90
        2
 40
-0.6
 41
30.0
 62
     5
 63
     7
 74
     1
 91
        4
 64
     7
 65
   257
 75
     1
175
     1
 42
1.0
 92
        0
 66
   257
 43
1.0
 76
     1
 77
     6
 78
     2
 67
     7
 79
     5
170
     0
171
     0
290
     0
174
     0
 93
       13
 44
0.0
173
     0
291
     1
 45
0.0
1001
ACAD
1000
AcDbSavedByObjectVersion
1070
     0
  0
VISUALSTYLE
  5
5F26
102
{ACAD_REACTORS
330
5F23
102
}
330
5F23
100
AcDbVisualStyle
  2
Gouraud
 70
     2
 71
     2
 72
     2
 73
     1
 90
        2
 40
-0.6
 41
30.0
 62
     5
 63
     7
 74
     0
 91
        4
 64
     7
 65
   257
 75
     1
175
     1
 42
1.0
 92
        0
 66
     7
 43
1.0
 76
     1
 77
     6
 78
     2
 67
     7
 79
     5
170
     0
171
     0
290
     0
174
     0
 93
       13
 44
0.0
173
     0
291
     1
 45
0.0
1001
ACAD
1000
AcDbSavedByObjectVersion
1070
     0
  0
VISUALSTYLE
  5
5F27
102
{ACAD_REACTORS
330
5F23
102
}
330
5F23
100
AcDbVisualStyle
  2
GouraudWithEdges
 70
     3
 71
     2
 72
     2
 73
     1
 90
        2
 40
-0.6
 41
30.0
 62
     5
 63
     7
 74
     1
 91
        4
 64
     7
 65
   257
 75
     1
175
     1
 42
1.0
 92
        0
 66
   257
 43
1.0
 76
     1
 77
     6
 78
     2
 67
     7
 79
     5
170
     0
171
     0
290
     0
174
     0
 93
       13
 44
0.0
173
     0
291
     1
 45
0.0
1001
ACAD
1000
AcDbSavedByObjectVersion
1070
     0
  0
VISUALSTYLE
  5
5F31
102
{ACAD_REACTORS
330
5F23
102
}
330
5F23
100
AcDbVisualStyle
  2
Linepattern
 70
    14
 71
     2
 72
     2
 73
     0
 90
        0
 40
-0.6
 41
-30.0
 62
     5
 63
     7
 74
     1
 91
        4
 64
     7
 65
   257
 75
     7
175
     7
 42
1.0
 92
        8
 66
     7
 43
1.0
 76
     1
 77
     6
 78
     2
 67
     7
 79
     5
170
     0
171
     0
290
     0
174
     0
 93
        1
 44
0.0
173
     0
291
     1
 45
0.0
1001
ACAD
1000
AcDbSavedByObjectVersion
1070
     0
  0
VISUALSTYLE
  5
5F2D
102
{ACAD_REACTORS
330
5F23
102
}
330
5F23
100
AcDbVisualStyle
  2
Realistic
 70
     8
 71
     2
 72
     2
 73
     0
 90
        0
 40
-0.6
 41
-30.0
 62
     5
 63
     7
 74
     1
 91
        0
 64
     7
 65
   257
 75
     1
175
     1
 42
1.0
 92
        8
 66
     8
 43
1.0
 76
     1
 77
     6
 78
     2
 67
     7
 79
     5
170
     0
171
     0
290
     0
174
     0
 93
       13
 44
0.0
173
     0
291
     0
 45
0.0
1001
ACAD
1000
AcDbSavedByObjectVersion
1070
     0
  0
VISUALSTYLE
  5
5F30
102
{ACAD_REACTORS
330
5F23
102
}
330
5F23
100
AcDbVisualStyle
  2
Thicken
 70
    13
 71
     2
 72
     2
 73
     0
 90
        0
 40
-0.6
 41
-30.0
 62
     5
 63
     7
 74
     1
 91
        4
 64
     7
 65
   257
 75
     1
175
     1
 42
1.0
 92
       12
 66
     7
 43
1.0
 76
     1
 77
     6
 78
     2
 67
     7
 79
     5
170
     0
171
     0
290
     0
174
     0
 93
        1
 44
0.0
173
     0
291
     1
 45
0.0
1001
ACAD
1000
AcDbSavedByObjectVersion
1070
     0
  0
DICTIONARYVAR
  5
6105
102
{ACAD_REACTORS
330
6102
102
}
330
6102
100
DictionaryVariables
280
     0
  1
1:1
  0
DICTIONARYVAR
  5
6104
102
{ACAD_REACTORS
330
6102
102
}
330
6102
100
DictionaryVariables
280
     0
  1
STANDARD
  0
DICTIONARYVAR
  5
6103
102
{ACAD_REACTORS
330
6102
102
}
330
6102
100
DictionaryVariables
280
     0
  1
STANDARD
  0
DICTIONARYVAR
  5
6108
102
{ACAD_REACTORS
330
6102
102
}
330
6102
100
DictionaryVariables
280
     0
  1
1
  0
DICTIONARYVAR
  5
6107
102
{ACAD_REACTORS
330
6102
102
}
330
6102
100
DictionaryVariables
280
     0
  1
0
  0
DICTIONARYVAR
  5
6106
102
{ACAD_REACTORS
330
6102
102
}
330
6102
100
DictionaryVariables
280
     0
  1
127
  0
VLO-VL
  5
60F3
102
{ACAD_REACTORS
330
60F2
102
}
330
60F2
100
vlo_VL
 90
   -64512
 91
       12
 92
        1
 40
2.5
300
(&VLO-R . 0)
  0
DICTIONARY
  5
7D6B
330
5F71
100
AcDbDictionary
280
     1
281
     1
  3
ACAD_XREC_ROUNDTRIP
360
7D6C
  0
DICTIONARY
  5
7D69
330
5F6D
100
AcDbDictionary
280
     1
281
     1
  3
ACAD_XREC_ROUNDTRIP
360
7D6A
  0
DICTIONARY
  5
5F14
330
5F13
100
AcDbDictionary
280
     1
281
     1
  3
ACAD_XREC_ROUNDTRIP
360
7D66
  3
BUMPTILE
360
5F16
  3
DIFFUSETILE
360
5F15
  3
OPACITYTILE
360
5F19
  3
REFLECTIONTILE
360
5F18
  3
REFRACTIONTILE
360
5F1A
  3
SPECULARTILE
360
5F17
  0
DICTIONARY
  5
5F0C
330
5F0B
100
AcDbDictionary
280
     1
281
     1
  3
ACAD_XREC_ROUNDTRIP
360
7D65
  3
BUMPTILE
360
5F0E
  3
DIFFUSETILE
360
5F0D
  3
OPACITYTILE
360
5F11
  3
REFLECTIONTILE
360
5F10
  3
REFRACTIONTILE
360
5F12
  3
SPECULARTILE
360
5F0F
  0
DICTIONARY
  5
5F1C
330
5F1B
100
AcDbDictionary
280
     1
281
     1
  3
ACAD_XREC_ROUNDTRIP
360
7D67
  3
BUMPTILE
360
5F1E
  3
DIFFUSETILE
360
5F1D
  3
OPACITYTILE
360
5F21
  3
REFLECTIONTILE
360
5F20
  3
REFRACTIONTILE
360
5F22
  3
SPECULARTILE
360
5F1F
  0
DICTIONARY
  5
7D61
330
5F66
100
AcDbDictionary
280
     1
281
     1
  3
ACAD_ROUNDTRIP_2008_TABLESTYLE_CELLSTYLEMAP
360
7D62
  3
ACAD_XREC_ROUNDTRIP
360
7D68
  0
XRECORD
  5
7D6C
102
{ACAD_REACTORS
330
7D6B
102
}
330
7D6B
100
AcDbXrecord
280
     1
102
SHADEPLOT
 70
     0
102
SHADEPLOTRESLEVEL
 70
     2
102
SHADEPLOTCUSTOMDPI
 70
   300
  0
XRECORD
  5
7D6A
102
{ACAD_REACTORS
330
7D69
102
}
330
7D69
100
AcDbXrecord
280
     1
102
SHADEPLOT
 70
     0
102
SHADEPLOTRESLEVEL
 70
     2
102
SHADEPLOTCUSTOMDPI
 70
   300
  0
XRECORD
  5
7D66
102
{ACAD_REACTORS
330
5F14
102
}
330
5F14
100
AcDbXrecord
280
     1
102
MATERIAL
148
0.0
149
0.0
149
0.0
 93
        0
 94
      127
282
     0
 72
     0
 77
     0
171
     0
175
     0
179
     0
273
     0
  0
XRECORD
  5
5F16
102
{ACAD_REACTORS
330
5F14
102
}
330
5F14
100
AcDbXrecord
280
     1
270
     1
271
     1
  0
XRECORD
  5
5F15
102
{ACAD_REACTORS
330
5F14
102
}
330
5F14
100
AcDbXrecord
280
     1
270
     1
271
     1
  0
XRECORD
  5
5F19
102
{ACAD_REACTORS
330
5F14
102
}
330
5F14
100
AcDbXrecord
280
     1
270
     1
271
     1
  0
XRECORD
  5
5F18
102
{ACAD_REACTORS
330
5F14
102
}
330
5F14
100
AcDbXrecord
280
     1
270
     1
271
     1
  0
XRECORD
  5
5F1A
102
{ACAD_REACTORS
330
5F14
102
}
330
5F14
100
AcDbXrecord
280
     1
270
     1
271
     1
  0
XRECORD
  5
5F17
102
{ACAD_REACTORS
330
5F14
102
}
330
5F14
100
AcDbXrecord
280
     1
270
     1
271
     1
  0
XRECORD
  5
7D65
102
{ACAD_REACTORS
330
5F0C
102
}
330
5F0C
100
AcDbXrecord
280
     1
102
MATERIAL
148
0.0
149
0.0
149
0.0
 93
        0
 94
      127
282
     0
 72
     0
 77
     0
171
     0
175
     0
179
     0
273
     0
  0
XRECORD
  5
5F0E
102
{ACAD_REACTORS
330
5F0C
102
}
330
5F0C
100
AcDbXrecord
280
     1
270
     1
271
     1
  0
XRECORD
  5
5F0D
102
{ACAD_REACTORS
330
5F0C
102
}
330
5F0C
100
AcDbXrecord
280
     1
270
     1
271
     1
  0
XRECORD
  5
5F11
102
{ACAD_REACTORS
330
5F0C
102
}
330
5F0C
100
AcDbXrecord
280
     1
270
     1
271
     1
  0
XRECORD
  5
5F10
102
{ACAD_REACTORS
330
5F0C
102
}
330
5F0C
100
AcDbXrecord
280
     1
270
     1
271
     1
  0
XRECORD
  5
5F12
102
{ACAD_REACTORS
330
5F0C
102
}
330
5F0C
100
AcDbXrecord
280
     1
270
     1
271
     1
  0
XRECORD
  5
5F0F
102
{ACAD_REACTORS
330
5F0C
102
}
330
5F0C
100
AcDbXrecord
280
     1
270
     1
271
     1
  0
XRECORD
  5
7D67
102
{ACAD_REACTORS
330
5F1C
102
}
330
5F1C
100
AcDbXrecord
280
     1
102
MATERIAL
148
0.0
149
0.0
149
0.0
 93
        0
 94
      127
282
     0
 72
     0
 77
     0
171
     0
175
     0
179
     0
273
     0
  0
XRECORD
  5
5F1E
102
{ACAD_REACTORS
330
5F1C
102
}
330
5F1C
100
AcDbXrecord
280
     1
270
     1
271
     1
  0
XRECORD
  5
5F1D
102
{ACAD_REACTORS
330
5F1C
102
}
330
5F1C
100
AcDbXrecord
280
     1
270
     1
271
     1
  0
XRECORD
  5
5F21
102
{ACAD_REACTORS
330
5F1C
102
}
330
5F1C
100
AcDbXrecord
280
     1
270
     1
271
     1
  0
XRECORD
  5
5F20
102
{ACAD_REACTORS
330
5F1C
102
}
330
5F1C
100
AcDbXrecord
280
     1
270
     1
271
     1
  0
XRECORD
  5
5F22
102
{ACAD_REACTORS
330
5F1C
102
}
330
5F1C
100
AcDbXrecord
280
     1
270
     1
271
     1
  0
XRECORD
  5
5F1F
102
{ACAD_REACTORS
330
5F1C
102
}
330
5F1C
100
AcDbXrecord
280
     1
270
     1
271
     1
  0
CELLSTYLEMAP
  5
7D62
102
{ACAD_REACTORS
330
7D61
102
}
330
7D61
100
AcDbCellStyleMap
 90
        3
300
CELLSTYLE
  1
TABLEFORMAT_BEGIN
 90
        5
170
     1
 91
        0
 92
    32768
 62
   257
 93
        1
300
CONTENTFORMAT
  1
CONTENTFORMAT_BEGIN
 90
        0
 91
        0
 92
      512
 93
        0
300

 40
0.0
140
1.0
 94
        5
 62
     0
340
5F57
144
0.25
309
CONTENTFORMAT_END
171
     0
 94
        0
309
TABLEFORMAT_END
  1
CELLSTYLE_BEGIN
 90
        1
 91
        1
300
_TITLE
309
CELLSTYLE_END
300
CELLSTYLE
  1
TABLEFORMAT_BEGIN
 90
        5
170
     1
 91
        0
 92
        0
 62
   257
 93
        1
300
CONTENTFORMAT
  1
CONTENTFORMAT_BEGIN
 90
        0
 91
        0
 92
      512
 93
        0
300

 40
0.0
140
1.0
 94
        5
 62
     0
340
5F57
144
0.18
309
CONTENTFORMAT_END
171
     0
 94
        0
309
TABLEFORMAT_END
  1
CELLSTYLE_BEGIN
 90
        2
 91
        1
300
_HEADER
309
CELLSTYLE_END
300
CELLSTYLE
  1
TABLEFORMAT_BEGIN
 90
        5
170
     1
 91
        0
 92
        0
 62
   257
 93
        1
300
CONTENTFORMAT
  1
CONTENTFORMAT_BEGIN
 90
        0
 91
        0
 92
      512
 93
        0
300

 40
0.0
140
1.0
 94
        2
 62
     0
340
5F57
144
0.18
309
CONTENTFORMAT_END
171
     0
 94
        0
309
TABLEFORMAT_END
  1
CELLSTYLE_BEGIN
 90
        3
 91
        2
300
_DATA
309
CELLSTYLE_END
  0
XRECORD
  5
7D68
102
{ACAD_REACTORS
330
7D61
102
}
330
7D61
100
AcDbXrecord
280
     1
102
ACAD_ROUNDTRIP_PRE2007_TABLESTYLE
 90
      512
 91
        0
  1

 92
      512
 93
        0
  2

 94
      512
 95
        0
  3

  0
ENDSEC
  0
EOF
